  0
SECTION
  2
HEADER
  9
$ACADVER
  1
AC1015
  9
$ACADMAINTVER
 70
     6
  9
$DWGCODEPAGE
  3
ANSI_1252
  9
$INSBASE
 10
0.0
 20
0.0
 30
0.0
  9
$EXTMIN
 10
10.2000000050777
 20
2.99999988108208
 30
0.0
  9
$EXTMAX
 10
200.4000000050782
 20
288.399999881082
 30
0.0
  9
$LIMMIN
 10
0.0
 20
0.0
  9
$LIMMAX
 10
12.0
 20
9.0
  9
$ORTHOMODE
 70
     0
  9
$REGENMODE
 70
     1
  9
$FILLMODE
 70
     1
  9
$QTEXTMODE
 70
     0
  9
$MIRRTEXT
 70
     1
  9
$LTSCALE
 40
1.0
  9
$ATTMODE
 70
     1
  9
$TEXTSIZE
 40
0.2
  9
$TRACEWID
 40
0.05
  9
$TEXTSTYLE
  7
Standard
  9
$CLAYER
  8
0
  9
$CELTYPE
  6
ByLayer
  9
$CECOLOR
 62
   256
  9
$CELTSCALE
 40
1.0
  9
$DISPSILH
 70
     0
  9
$DIMSCALE
 40
1.0
  9
$DIMASZ
 40
0.18
  9
$DIMEXO
 40
0.0625
  9
$DIMDLI
 40
0.38
  9
$DIMRND
 40
0.0
  9
$DIMDLE
 40
0.0
  9
$DIMEXE
 40
0.18
  9
$DIMTP
 40
0.0
  9
$DIMTM
 40
0.0
  9
$DIMTXT
 40
0.18
  9
$DIMCEN
 40
0.09
  9
$DIMTSZ
 40
0.0
  9
$DIMTOL
 70
     0
  9
$DIMLIM
 70
     0
  9
$DIMTIH
 70
     1
  9
$DIMTOH
 70
     1
  9
$DIMSE1
 70
     0
  9
$DIMSE2
 70
     0
  9
$DIMTAD
 70
     0
  9
$DIMZIN
 70
     0
  9
$DIMBLK
  1

  9
$DIMASO
 70
     1
  9
$DIMSHO
 70
     1
  9
$DIMPOST
  1

  9
$DIMAPOST
  1

  9
$DIMALT
 70
     0
  9
$DIMALTD
 70
     2
  9
$DIMALTF
 40
25.4
  9
$DIMLFAC
 40
1.0
  9
$DIMTOFL
 70
     0
  9
$DIMTVP
 40
0.0
  9
$DIMTIX
 70
     0
  9
$DIMSOXD
 70
     0
  9
$DIMSAH
 70
     0
  9
$DIMBLK1
  1

  9
$DIMBLK2
  1

  9
$DIMSTYLE
  2
Standard
  9
$DIMCLRD
 70
     0
  9
$DIMCLRE
 70
     0
  9
$DIMCLRT
 70
     0
  9
$DIMTFAC
 40
1.0
  9
$DIMGAP
 40
0.09
  9
$DIMJUST
 70
     0
  9
$DIMSD1
 70
     0
  9
$DIMSD2
 70
     0
  9
$DIMTOLJ
 70
     1
  9
$DIMTZIN
 70
     0
  9
$DIMALTZ
 70
     0
  9
$DIMALTTZ
 70
     0
  9
$DIMUPT
 70
     0
  9
$DIMDEC
 70
     4
  9
$DIMTDEC
 70
     4
  9
$DIMALTU
 70
     2
  9
$DIMALTTD
 70
     2
  9
$DIMTXSTY
  7
Standard
  9
$DIMAUNIT
 70
     0
  9
$DIMADEC
 70
     0
  9
$DIMALTRND
 40
0.0
  9
$DIMAZIN
 70
     0
  9
$DIMDSEP
 70
    46
  9
$DIMATFIT
 70
     3
  9
$DIMFRAC
 70
     0
  9
$DIMLDRBLK
  1

  9
$DIMLUNIT
 70
     2
  9
$DIMLWD
 70
    -2
  9
$DIMLWE
 70
    -2
  9
$DIMTMOVE
 70
     0
  9
$LUNITS
 70
     2
  9
$LUPREC
 70
     4
  9
$SKETCHINC
 40
0.1
  9
$FILLETRAD
 40
0.5
  9
$AUNITS
 70
     0
  9
$AUPREC
 70
     0
  9
$MENU
  1
.
  9
$ELEVATION
 40
0.0
  9
$PELEVATION
 40
0.0
  9
$THICKNESS
 40
0.0
  9
$LIMCHECK
 70
     0
  9
$CHAMFERA
 40
0.5
  9
$CHAMFERB
 40
0.5
  9
$CHAMFERC
 40
1.0
  9
$CHAMFERD
 40
0.0
  9
$SKPOLY
 70
     0
  9
$TDCREATE
 40
2456706.534388796
  9
$TDUCREATE
 40
2456706.492722129
  9
$TDUPDATE
 40
2456706.534389838
  9
$TDUUPDATE
 40
2456706.492723171
  9
$TDINDWG
 40
0.0000000116
  9
$TDUSRTIMER
 40
0.0000000116
  9
$USRTIMER
 70
     1
  9
$ANGBASE
 50
0.0
  9
$ANGDIR
 70
     0
  9
$PDMODE
 70
     0
  9
$PDSIZE
 40
0.0
  9
$PLINEWID
 40
0.0
  9
$SPLFRAME
 70
     0
  9
$SPLINETYPE
 70
     6
  9
$SPLINESEGS
 70
     8
  9
$HANDSEED
  5
34E
  9
$SURFTAB1
 70
     6
  9
$SURFTAB2
 70
     6
  9
$SURFTYPE
 70
     6
  9
$SURFU
 70
     6
  9
$SURFV
 70
     6
  9
$UCSBASE
  2

  9
$UCSNAME
  2

  9
$UCSORG
 10
0.0
 20
0.0
 30
0.0
  9
$UCSXDIR
 10
1.0
 20
0.0
 30
0.0
  9
$UCSYDIR
 10
0.0
 20
1.0
 30
0.0
  9
$UCSORTHOREF
  2

  9
$UCSORTHOVIEW
 70
     0
  9
$UCSORGTOP
 10
0.0
 20
0.0
 30
0.0
  9
$UCSORGBOTTOM
 10
0.0
 20
0.0
 30
0.0
  9
$UCSORGLEFT
 10
0.0
 20
0.0
 30
0.0
  9
$UCSORGRIGHT
 10
0.0
 20
0.0
 30
0.0
  9
$UCSORGFRONT
 10
0.0
 20
0.0
 30
0.0
  9
$UCSORGBACK
 10
0.0
 20
0.0
 30
0.0
  9
$PUCSBASE
  2

  9
$PUCSNAME
  2

  9
$PUCSORG
 10
0.0
 20
0.0
 30
0.0
  9
$PUCSXDIR
 10
1.0
 20
0.0
 30
0.0
  9
$PUCSYDIR
 10
0.0
 20
1.0
 30
0.0
  9
$PUCSORTHOREF
  2

  9
$PUCSORTHOVIEW
 70
     0
  9
$PUCSORGTOP
 10
0.0
 20
0.0
 30
0.0
  9
$PUCSORGBOTTOM
 10
0.0
 20
0.0
 30
0.0
  9
$PUCSORGLEFT
 10
0.0
 20
0.0
 30
0.0
  9
$PUCSORGRIGHT
 10
0.0
 20
0.0
 30
0.0
  9
$PUCSORGFRONT
 10
0.0
 20
0.0
 30
0.0
  9
$PUCSORGBACK
 10
0.0
 20
0.0
 30
0.0
  9
$USERI1
 70
     0
  9
$USERI2
 70
     0
  9
$USERI3
 70
     0
  9
$USERI4
 70
     0
  9
$USERI5
 70
     0
  9
$USERR1
 40
18.1
  9
$USERR2
 40
0.0
  9
$USERR3
 40
0.0
  9
$USERR4
 40
0.0
  9
$USERR5
 40
0.0
  9
$WORLDVIEW
 70
     1
  9
$SHADEDGE
 70
     3
  9
$SHADEDIF
 70
    70
  9
$TILEMODE
 70
     1
  9
$MAXACTVP
 70
    64
  9
$PINSBASE
 10
0.0
 20
0.0
 30
0.0
  9
$PLIMCHECK
 70
     0
  9
$PEXTMIN
 10
1.00000000000000E+20
 20
1.00000000000000E+20
 30
1.00000000000000E+20
  9
$PEXTMAX
 10
-1.00000000000000E+20
 20
-1.00000000000000E+20
 30
-1.00000000000000E+20
  9
$PLIMMIN
 10
0.0
 20
0.0
  9
$PLIMMAX
 10
12.0
 20
9.0
  9
$UNITMODE
 70
     0
  9
$VISRETAIN
 70
     1
  9
$PLINEGEN
 70
     0
  9
$PSLTSCALE
 70
     1
  9
$TREEDEPTH
 70
  3020
  9
$CMLSTYLE
  2
Standard
  9
$CMLJUST
 70
     0
  9
$CMLSCALE
 40
1.0
  9
$PROXYGRAPHICS
 70
     1
  9
$MEASUREMENT
 70
     1
  9
$CELWEIGHT
370
    -1
  9
$ENDCAPS
280
     0
  9
$JOINSTYLE
280
     0
  9
$LWDISPLAY
290
     0
  9
$INSUNITS
 70
     4
  9
$HYPERLINKBASE
  1

  9
$STYLESHEET
  1

  9
$XEDIT
290
     1
  9
$CEPSNTYPE
380
     0
  9
$PSTYLEMODE
290
     1
  9
$FINGERPRINTGUID
  2
{60840B3F-220D-4894-A29A-484F0DC41CB7}
  9
$VERSIONGUID
  2
{FAEB1C32-E019-11D5-929B-00C0DF256EC4}
  9
$EXTNAMES
290
     1
  9
$PSVPSCALE
 40
0.0
  9
$OLESTARTUP
290
     0
  0
ENDSEC
  0
SECTION
  2
CLASSES
  0
CLASS
  1
ACDBDICTIONARYWDFLT
  2
AcDbDictionaryWithDefault
  3
ObjectDBX Classes
 90
        0
280
     0
281
     0
  0
CLASS
  1
VISUALSTYLE
  2
AcDbVisualStyle
  3
ObjectDBX Classes
 90
     4095
280
     0
281
     0
  0
CLASS
  1
MATERIAL
  2
AcDbMaterial
  3
ObjectDBX Classes
 90
     1153
280
     0
281
     0
  0
CLASS
  1
IMAGEDEF
  2
AcDbRasterImageDef
  3
ISM
 90
        0
280
     0
281
     0
  0
CLASS
  1
IMAGE
  2
AcDbRasterImage
  3
ISM
 90
      127
280
     0
281
     1
  0
CLASS
  1
IMAGEDEF_REACTOR
  2
AcDbRasterImageDefReactor
  3
ISM
 90
        1
280
     0
281
     0
  0
CLASS
  1
DICTIONARYVAR
  2
AcDbDictionaryVar
  3
ObjectDBX Classes
 90
        0
280
     0
281
     0
  0
CLASS
  1
ACDBPLACEHOLDER
  2
AcDbPlaceHolder
  3
ObjectDBX Classes
 90
        0
280
     0
281
     0
  0
CLASS
  1
LAYOUT
  2
AcDbLayout
  3
ObjectDBX Classes
 90
        0
280
     0
281
     0
  0
ENDSEC
  0
SECTION
  2
TABLES
  0
TABLE
  2
VPORT
  5
8
330
0
100
AcDbSymbolTable
 70
     1
  0
VPORT
  5
29
330
8
100
AcDbSymbolTableRecord
100
AcDbViewportTableRecord
  2
*Active
 70
     0
 10
0.0
 20
0.0
 11
1.0
 21
1.0
 12
105.3000000050779
 22
145.6999998810821
 13
0.0
 23
0.0
 14
0.5
 24
0.5
 15
0.5
 25
0.5
 16
0.0
 26
0.0
 36
1.0
 17
0.0
 27
0.0
 37
0.0
 40
313.9399999999999
 41
1.60267857142857
 42
50.0
 43
0.0
 44
0.0
 50
0.0
 51
0.0
 71
     0
 72
   100
 73
     1
 74
     3
 75
     0
 76
     0
 77
     0
 78
     0
281
     0
 65
     1
110
0.0
120
0.0
130
0.0
111
1.0
121
0.0
131
0.0
112
0.0
122
1.0
132
0.0
 79
     0
146
0.0
  0
ENDTAB
  0
TABLE
  2
LTYPE
  5
5
330
0
100
AcDbSymbolTable
 70
     8
  0
LTYPE
  5
14
330
5
100
AcDbSymbolTableRecord
100
AcDbLinetypeTableRecord
  2
ByBlock
 70
     0
  3

 72
    65
 73
     0
 40
0.0
  0
LTYPE
  5
15
330
5
100
AcDbSymbolTableRecord
100
AcDbLinetypeTableRecord
  2
ByLayer
 70
     0
  3

 72
    65
 73
     0
 40
0.0
  0
LTYPE
  5
16
330
5
100
AcDbSymbolTableRecord
100
AcDbLinetypeTableRecord
  2
Continuous
 70
     0
  3
Solid line
 72
    65
 73
     0
 40
0.0
  0
LTYPE
  5
3F
330
5
100
AcDbSymbolTableRecord
100
AcDbLinetypeTableRecord
  2
DASHED
 70
     0
  3
Dashed
 72
    65
 73
     2
 40
15.0
 49
7.0
 74
     0
 49
-8.0
 74
     0
  0
LTYPE
  5
40
330
5
100
AcDbSymbolTableRecord
100
AcDbLinetypeTableRecord
  2
DOTTED
 70
     0
  3
Dotted
 72
    65
 73
     2
 40
1.0
 49
0.0
 74
     0
 49
-1.0
 74
     0
  0
LTYPE
  5
41
330
5
100
AcDbSymbolTableRecord
100
AcDbLinetypeTableRecord
  2
DOT_CENTER
 70
     0
  3
Dot_Center
 72
    65
 73
     4
 40
14.0
 49
12.0
 74
     0
 49
-1.0
 74
     0
 49
0.0
 74
     0
 49
-1.0
 74
     0
  0
LTYPE
  5
42
330
5
100
AcDbSymbolTableRecord
100
AcDbLinetypeTableRecord
  2
LONG_DASHED
 70
     0
  3
Long_Dashed
 72
    65
 73
     2
 40
15.0
 49
10.0
 74
     0
 49
-5.0
 74
     0
  0
LTYPE
  5
43
330
5
100
AcDbSymbolTableRecord
100
AcDbLinetypeTableRecord
  2
DASH_CENTER
 70
     0
  3
Dash_Center
 72
    65
 73
     4
 40
14.0
 49
11.0
 74
     0
 49
-1.0
 74
     0
 49
1.0
 74
     0
 49
-1.0
 74
     0
  0
LTYPE
  5
44
330
5
100
AcDbSymbolTableRecord
100
AcDbLinetypeTableRecord
  2
PHANTOM
 70
     0
  3
Phantom
 72
    65
 73
     6
 40
13.0
 49
10.0
 74
     0
 49
-1.0
 74
     0
 49
0.0
 74
     0
 49
-1.0
 74
     0
 49
0.0
 74
     0
 49
-1.0
 74
     0
  0
LTYPE
  5
45
330
5
100
AcDbSymbolTableRecord
100
AcDbLinetypeTableRecord
  2
CENTER_DASH_DASH
 70
     0
  3
Center_Dash_Dash
 72
    65
 73
     6
 40
14.0
 49
9.0
 74
     0
 49
-1.0
 74
     0
 49
1.0
 74
     0
 49
-1.0
 74
     0
 49
1.0
 74
     0
 49
-1.0
 74
     0
  0
ENDTAB
  0
TABLE
  2
LAYER
  5
2
330
0
100
AcDbSymbolTable
 70
     3
  0
LAYER
  5
10
330
2
100
AcDbSymbolTableRecord
100
AcDbLayerTableRecord
  2
0
 70
     0
 62
     7
  6
Continuous
370
    -3
390
F
  0
LAYER
  5
46
330
2
100
AcDbSymbolTableRecord
100
AcDbLayerTableRecord
  2
1
 70
     0
 62
     7
  6
Continuous
370
    -3
390
F
  0
LAYER
  5
47
330
2
100
AcDbSymbolTableRecord
100
AcDbLayerTableRecord
  2
9_schriftkopf
 70
     0
 62
     7
  6
Continuous
370
    -3
390
F
  0
ENDTAB
  0
TABLE
  2
STYLE
  5
3
330
0
100
AcDbSymbolTable
 70
    10
  0
STYLE
  5
11
330
3
100
AcDbSymbolTableRecord
100
AcDbTextStyleTableRecord
  2
Standard
 70
     0
 40
0.0
 41
1.0
 50
0.0
 71
     0
 42
0.2
  3
txt
  4

  0
STYLE
  5
EC
330
3
100
AcDbSymbolTableRecord
100
AcDbTextStyleTableRecord
  2
CONVERTER_11
 70
     0
 40
0.0
 41
0.9
 50
0.0
 71
     0
 42
0.2
  3
txt.shx
  4

  0
STYLE
  5
2E7
330
3
100
AcDbSymbolTableRecord
100
AcDbTextStyleTableRecord
  2
CONVERTER_12
 70
     0
 40
0.0
 41
0.675
 50
0.0
 71
     0
 42
0.2
  3
txt.shx
  4

  0
STYLE
  5
2E9
330
3
100
AcDbSymbolTableRecord
100
AcDbTextStyleTableRecord
  2
CONVERTER_13
 70
     0
 40
0.0
 41
0.72
 50
0.0
 71
     0
 42
0.2
  3
txt.shx
  4

  0
STYLE
  5
2EB
330
3
100
AcDbSymbolTableRecord
100
AcDbTextStyleTableRecord
  2
CONVERTER_14
 70
     0
 40
0.0
 41
0.54
 50
0.0
 71
     0
 42
0.2
  3
txt.shx
  4

  0
STYLE
  5
2EE
330
3
100
AcDbSymbolTableRecord
100
AcDbTextStyleTableRecord
  2
CONVERTER_15
 70
     0
 40
0.0
 41
1.0
 50
0.0
 71
     0
 42
0.2
  3
txt.shx
  4

  0
STYLE
  5
30A
330
3
100
AcDbSymbolTableRecord
100
AcDbTextStyleTableRecord
  2
CONVERTER_16
 70
     0
 40
0.0
 41
0.81
 50
0.0
 71
     0
 42
0.2
  3
txt.shx
  4

  0
STYLE
  5
30F
330
3
100
AcDbSymbolTableRecord
100
AcDbTextStyleTableRecord
  2
CONVERTER_17
 70
     0
 40
0.0
 41
0.702
 50
0.0
 71
     0
 42
0.2
  3
txt.shx
  4

  0
STYLE
  5
31E
330
3
100
AcDbSymbolTableRecord
100
AcDbTextStyleTableRecord
  2
CONVERTER_18
 70
     0
 40
0.0
 41
0.585
 50
0.0
 71
     0
 42
0.2
  3
txt.shx
  4

  0
STYLE
  5
320
330
3
100
AcDbSymbolTableRecord
100
AcDbTextStyleTableRecord
  2
CONVERTER_19
 70
     0
 40
0.0
 41
0.63
 50
0.0
 71
     0
 42
0.2
  3
txt.shx
  4

  0
ENDTAB
  0
TABLE
  2
VIEW
  5
6
330
0
100
AcDbSymbolTable
 70
     0
  0
ENDTAB
  0
TABLE
  2
UCS
  5
7
330
0
100
AcDbSymbolTable
 70
     0
  0
ENDTAB
  0
TABLE
  2
APPID
  5
9
330
0
100
AcDbSymbolTable
 70
     1
  0
APPID
  5
12
330
9
100
AcDbSymbolTableRecord
100
AcDbRegAppTableRecord
  2
ACAD
 70
     0
  0
ENDTAB
  0
TABLE
  2
DIMSTYLE
  5
A
330
0
100
AcDbSymbolTable
 70
    17
100
AcDbDimStyleTable
  0
DIMSTYLE
105
27
330
A
100
AcDbSymbolTableRecord
100
AcDbDimStyleTableRecord
  2
Standard
 70
     0
178
     0
340
11
  0
DIMSTYLE
105
F8
102
{ACAD_REACTORS
330
F9
102
}
330
A
100
AcDbSymbolTableRecord
100
AcDbDimStyleTableRecord
  2
ME10_DIM_10
 70
     0
 41
2.25
 42
0.0
 44
0.5
 73
     0
 74
     0
 77
     1
 78
     8
140
2.5
147
1.0
172
     1
173
     1
174
     1
175
     1
176
     2
177
     2
271
     2
178
     2
271
     2
340
EC
  0
DIMSTYLE
105
103
102
{ACAD_REACTORS
330
104
102
}
330
A
100
AcDbSymbolTableRecord
100
AcDbDimStyleTableRecord
  2
ME10_DIM_11
 70
     0
 41
2.25
 42
0.0
 44
0.5
 73
     0
 74
     0
 77
     1
 78
     8
140
2.5
147
1.0
172
     1
173
     1
174
     1
175
     1
176
     2
177
     2
271
     2
178
     2
271
     2
340
EC
  0
DIMSTYLE
105
10E
102
{ACAD_REACTORS
330
10F
102
}
330
A
100
AcDbSymbolTableRecord
100
AcDbDimStyleTableRecord
  2
ME10_DIM_12
 70
     0
 41
2.25
 42
0.0
 44
0.5
 73
     0
 74
     0
 77
     1
 78
     8
140
2.5
147
1.0
172
     1
173
     1
174
     1
175
     1
176
     2
177
     2
271
     2
178
     2
271
     2
340
EC
  0
DIMSTYLE
105
119
102
{ACAD_REACTORS
330
11A
102
}
330
A
100
AcDbSymbolTableRecord
100
AcDbDimStyleTableRecord
  2
ME10_DIM_13
 70
     0
 41
2.25
 42
0.0
 44
0.5
 73
     0
 74
     0
 77
     1
 78
     8
140
2.5
147
1.0
172
     1
173
     1
174
     1
175
     1
176
     2
177
     2
271
     2
178
     2
271
     2
340
EC
  0
DIMSTYLE
105
162
102
{ACAD_REACTORS
330
163
102
}
330
A
100
AcDbSymbolTableRecord
100
AcDbDimStyleTableRecord
  2
ME10_DIM_14
 70
     0
 41
2.25
 42
0.0
 44
0.5
 73
     0
 74
     0
 77
     1
 78
     8
140
2.5
147
1.0
172
     1
173
     1
174
     1
175
     1
176
     2
177
     2
271
     2
178
     2
271
     2
340
EC
  0
DIMSTYLE
105
16D
102
{ACAD_REACTORS
330
16E
102
}
330
A
100
AcDbSymbolTableRecord
100
AcDbDimStyleTableRecord
  2
ME10_DIM_15
 70
     0
 41
2.25
 42
0.0
 44
0.5
 73
     0
 74
     0
 77
     1
 78
     8
140
2.5
147
1.0
172
     1
173
     1
174
     1
175
     1
176
     2
177
     2
271
     2
178
     2
271
     2
340
EC
  0
DIMSTYLE
105
178
102
{ACAD_REACTORS
330
179
102
}
330
A
100
AcDbSymbolTableRecord
100
AcDbDimStyleTableRecord
  2
ME10_DIM_16
 70
     0
 41
2.25
 42
0.0
 44
0.5
 73
     0
 74
     0
 77
     1
 78
     8
140
2.5
147
1.0
172
     1
173
     1
174
     1
175
     1
176
     2
177
     2
271
     2
178
     2
271
     2
340
EC
  0
DIMSTYLE
105
183
102
{ACAD_REACTORS
330
184
102
}
330
A
100
AcDbSymbolTableRecord
100
AcDbDimStyleTableRecord
  2
ME10_DIM_17
 70
     0
 41
2.25
 42
0.0
 44
0.5
 73
     0
 74
     0
 77
     1
 78
     8
140
2.5
147
1.0
172
     1
173
     1
174
     1
175
     1
176
     2
177
     2
271
     2
178
     2
271
     2
340
EC
  0
DIMSTYLE
105
1CB
102
{ACAD_REACTORS
330
1CC
102
}
330
A
100
AcDbSymbolTableRecord
100
AcDbDimStyleTableRecord
  2
ME10_DIM_18
 70
     0
 41
2.25
 42
0.0
 44
0.5
 73
     0
 74
     0
 77
     1
 78
     8
140
2.5
147
1.0
172
     1
173
     1
174
     1
175
     1
176
     2
177
     2
271
     2
178
     2
271
     2
340
EC
  0
DIMSTYLE
105
1D6
102
{ACAD_REACTORS
330
1D7
102
}
330
A
100
AcDbSymbolTableRecord
100
AcDbDimStyleTableRecord
  2
ME10_DIM_19
 70
     0
 41
2.25
 42
0.0
 44
0.5
 73
     0
 74
     0
 77
     1
 78
     8
140
2.5
147
1.0
172
     1
173
     1
174
     1
175
     1
176
     2
177
     2
271
     2
178
     2
271
     2
340
EC
  0
DIMSTYLE
105
1E1
102
{ACAD_REACTORS
330
1E2
102
}
330
A
100
AcDbSymbolTableRecord
100
AcDbDimStyleTableRecord
  2
ME10_DIM_20
 70
     0
 41
2.25
 42
0.0
 44
0.5
 73
     0
 74
     0
 77
     1
 78
     8
140
2.5
147
1.0
172
     1
173
     1
174
     1
175
     1
176
     2
177
     2
271
     2
178
     2
271
     2
340
EC
  0
DIMSTYLE
105
1ED
102
{ACAD_REACTORS
330
1EE
102
}
330
A
100
AcDbSymbolTableRecord
100
AcDbDimStyleTableRecord
  2
ME10_DIM_21
 70
     0
 41
2.25
 42
0.0
 44
0.5
 73
     0
 74
     0
 77
     1
 78
     8
140
2.5
147
1.0
172
     1
173
     1
174
     1
175
     1
176
     2
177
     2
271
     2
178
     2
271
     2
340
EC
  0
DIMSTYLE
105
256
102
{ACAD_REACTORS
330
257
102
}
330
A
100
AcDbSymbolTableRecord
100
AcDbDimStyleTableRecord
  2
ME10_DIM_22
 70
     0
 41
2.25
 42
0.0
 44
0.5
 73
     0
 74
     0
 77
     1
 78
     8
140
2.5
147
1.0
172
     1
173
     1
174
     1
175
     1
176
     2
177
     2
271
     2
178
     2
271
     2
340
EC
  0
DIMSTYLE
105
261
102
{ACAD_REACTORS
330
262
102
}
330
A
100
AcDbSymbolTableRecord
100
AcDbDimStyleTableRecord
  2
ME10_DIM_23
 70
     0
 41
2.25
 42
0.0
 44
0.5
 73
     0
 74
     0
 77
     1
 78
     8
140
2.5
147
1.0
172
     1
173
     1
174
     1
175
     1
176
     2
177
     2
271
     2
178
     2
271
     2
340
EC
  0
DIMSTYLE
105
26C
102
{ACAD_REACTORS
330
26D
102
}
330
A
100
AcDbSymbolTableRecord
100
AcDbDimStyleTableRecord
  2
ME10_DIM_24
 70
     0
 41
2.25
 42
0.0
 44
0.5
 73
     0
 74
     0
 77
     1
 78
     8
140
2.5
147
1.0
172
     1
173
     1
174
     1
175
     1
176
     2
177
     2
271
     2
178
     2
271
     2
340
EC
  0
DIMSTYLE
105
277
102
{ACAD_REACTORS
330
278
102
}
330
A
100
AcDbSymbolTableRecord
100
AcDbDimStyleTableRecord
  2
ME10_DIM_25
 70
     0
 41
2.25
 42
0.0
 44
0.5
 73
     0
 74
     0
 77
     1
 78
     8
140
2.5
147
1.0
172
     1
173
     1
174
     1
175
     1
176
     2
177
     2
271
     2
178
     2
271
     2
340
EC
  0
ENDTAB
  0
TABLE
  2
BLOCK_RECORD
  5
1
330
0
100
AcDbSymbolTable
 70
    43
  0
BLOCK_RECORD
  5
1F
330
1
100
AcDbSymbolTableRecord
100
AcDbBlockTableRecord
  2
*Model_Space
340
22
  0
BLOCK_RECORD
  5
1B
330
1
100
AcDbSymbolTableRecord
100
AcDbBlockTableRecord
  2
*Paper_Space
340
1E
  0
BLOCK_RECORD
  5
23
330
1
100
AcDbSymbolTableRecord
100
AcDbBlockTableRecord
  2
*Paper_Space0
340
26
  0
BLOCK_RECORD
  5
48
330
1
100
AcDbSymbolTableRecord
100
AcDbBlockTableRecord
  2
classic_matt_außen__1
340
0
102
{BLKREFS
331
4C
102
}
  0
BLOCK_RECORD
  5
4B
330
1
100
AcDbSymbolTableRecord
100
AcDbBlockTableRecord
  2
classic_contact_matt_1__2
340
0
102
{BLKREFS
331
56
102
}
  0
BLOCK_RECORD
  5
4F
330
1
100
AcDbSymbolTableRecord
100
AcDbBlockTableRecord
  2
grundkoerper__3
340
0
102
{BLKREFS
331
57
102
}
  0
BLOCK_RECORD
  5
52
330
1
100
AcDbSymbolTableRecord
100
AcDbBlockTableRecord
  2
SAW22_Rev01_bauteil__ausgeklinkt__4
340
0
102
{BLKREFS
331
58
102
}
  0
BLOCK_RECORD
  5
55
330
1
100
AcDbSymbolTableRecord
100
AcDbBlockTableRecord
  2
SlidePal_L_22mm__5
340
0
102
{BLKREFS
331
5C
102
}
  0
BLOCK_RECORD
  5
5B
330
1
100
AcDbSymbolTableRecord
100
AcDbBlockTableRecord
  2
Std_SlidePal_U22
340
0
102
{BLKREFS
331
AB
102
}
  0
BLOCK_RECORD
  5
5F
330
1
100
AcDbSymbolTableRecord
100
AcDbBlockTableRecord
  2
grundkoerper__6
340
0
102
{BLKREFS
331
6D
102
}
  0
BLOCK_RECORD
  5
62
330
1
100
AcDbSymbolTableRecord
100
AcDbBlockTableRecord
  2
classic_matt_außen__7
340
0
102
{BLKREFS
331
66
102
}
  0
BLOCK_RECORD
  5
65
330
1
100
AcDbSymbolTableRecord
100
AcDbBlockTableRecord
  2
classic_contact_matt_1__8
340
0
102
{BLKREFS
331
6E
102
}
  0
BLOCK_RECORD
  5
69
330
1
100
AcDbSymbolTableRecord
100
AcDbBlockTableRecord
  2
SAW34_Rev01_bauteil__ausgeklinkt__9
340
0
102
{BLKREFS
331
6F
102
}
  0
BLOCK_RECORD
  5
6C
330
1
100
AcDbSymbolTableRecord
100
AcDbBlockTableRecord
  2
SlidePal_L_34mm__10
340
0
102
{BLKREFS
331
73
102
}
  0
BLOCK_RECORD
  5
72
330
1
100
AcDbSymbolTableRecord
100
AcDbBlockTableRecord
  2
Std_SlidePal_U34
340
0
102
{BLKREFS
331
AC
102
}
  0
BLOCK_RECORD
  5
76
330
1
100
AcDbSymbolTableRecord
100
AcDbBlockTableRecord
  2
classic_matt_außen__11
340
0
102
{BLKREFS
331
7A
102
}
  0
BLOCK_RECORD
  5
79
330
1
100
AcDbSymbolTableRecord
100
AcDbBlockTableRecord
  2
classic_contact_matt_1__12
340
0
102
{BLKREFS
331
84
102
}
  0
BLOCK_RECORD
  5
7D
330
1
100
AcDbSymbolTableRecord
100
AcDbBlockTableRecord
  2
grundkoerper__13
340
0
102
{BLKREFS
331
85
102
}
  0
BLOCK_RECORD
  5
80
330
1
100
AcDbSymbolTableRecord
100
AcDbBlockTableRecord
  2
SAW45_Rev01_bauteil__ausgeklinkt__14
340
0
102
{BLKREFS
331
86
102
}
  0
BLOCK_RECORD
  5
83
330
1
100
AcDbSymbolTableRecord
100
AcDbBlockTableRecord
  2
SlidePal_L_45mm__15
340
0
102
{BLKREFS
331
8A
102
}
  0
BLOCK_RECORD
  5
89
330
1
100
AcDbSymbolTableRecord
100
AcDbBlockTableRecord
  2
Std_SlidePal_U45
340
0
102
{BLKREFS
331
AD
102
}
  0
BLOCK_RECORD
  5
8D
330
1
100
AcDbSymbolTableRecord
100
AcDbBlockTableRecord
  2
classic_matt_außen__16
340
0
102
{BLKREFS
331
91
102
}
  0
BLOCK_RECORD
  5
90
330
1
100
AcDbSymbolTableRecord
100
AcDbBlockTableRecord
  2
classic_contact_matt_1__17
340
0
102
{BLKREFS
331
9E
102
}
  0
BLOCK_RECORD
  5
94
330
1
100
AcDbSymbolTableRecord
100
AcDbBlockTableRecord
  2
SAW45_Rev01_bauteil__ausgeklinkt__18
340
0
102
{BLKREFS
331
9F
102
}
  0
BLOCK_RECORD
  5
97
330
1
100
AcDbSymbolTableRecord
100
AcDbBlockTableRecord
  2
grundkoerper__19
340
0
102
{BLKREFS
331
A0
102
}
  0
BLOCK_RECORD
  5
9A
330
1
100
AcDbSymbolTableRecord
100
AcDbBlockTableRecord
  2
Dichtung01_1_1_1_1_1_1
340
0
102
{BLKREFS
331
A1
102
}
  0
BLOCK_RECORD
  5
9D
330
1
100
AcDbSymbolTableRecord
100
AcDbBlockTableRecord
  2
SlidePal_L_40mm
340
0
102
{BLKREFS
331
A5
102
}
  0
BLOCK_RECORD
  5
A4
330
1
100
AcDbSymbolTableRecord
100
AcDbBlockTableRecord
  2
Vordans1
340
0
102
{BLKREFS
331
AE
102
}
  0
BLOCK_RECORD
  5
A8
330
1
100
AcDbSymbolTableRecord
100
AcDbBlockTableRecord
  2
A4_Hoch__20
340
0
102
{BLKREFS
331
AF
102
}
  0
BLOCK_RECORD
  5
EE
330
1
100
AcDbSymbolTableRecord
100
AcDbBlockTableRecord
  2
*D27
340
0
  0
BLOCK_RECORD
  5
FA
330
1
100
AcDbSymbolTableRecord
100
AcDbBlockTableRecord
  2
*D28
340
0
  0
BLOCK_RECORD
  5
105
330
1
100
AcDbSymbolTableRecord
100
AcDbBlockTableRecord
  2
*D29
340
0
  0
BLOCK_RECORD
  5
110
330
1
100
AcDbSymbolTableRecord
100
AcDbBlockTableRecord
  2
*D30
340
0
  0
BLOCK_RECORD
  5
158
330
1
100
AcDbSymbolTableRecord
100
AcDbBlockTableRecord
  2
*D31
340
0
  0
BLOCK_RECORD
  5
164
330
1
100
AcDbSymbolTableRecord
100
AcDbBlockTableRecord
  2
*D32
340
0
  0
BLOCK_RECORD
  5
16F
330
1
100
AcDbSymbolTableRecord
100
AcDbBlockTableRecord
  2
*D33
340
0
  0
BLOCK_RECORD
  5
17A
330
1
100
AcDbSymbolTableRecord
100
AcDbBlockTableRecord
  2
*D34
340
0
  0
BLOCK_RECORD
  5
1C2
330
1
100
AcDbSymbolTableRecord
100
AcDbBlockTableRecord
  2
*D35
340
0
  0
BLOCK_RECORD
  5
1CD
330
1
100
AcDbSymbolTableRecord
100
AcDbBlockTableRecord
  2
*D36
340
0
  0
BLOCK_RECORD
  5
1D8
330
1
100
AcDbSymbolTableRecord
100
AcDbBlockTableRecord
  2
*D37
340
0
  0
BLOCK_RECORD
  5
1E3
330
1
100
AcDbSymbolTableRecord
100
AcDbBlockTableRecord
  2
*D38
340
0
  0
BLOCK_RECORD
  5
24C
330
1
100
AcDbSymbolTableRecord
100
AcDbBlockTableRecord
  2
*D39
340
0
  0
BLOCK_RECORD
  5
258
330
1
100
AcDbSymbolTableRecord
100
AcDbBlockTableRecord
  2
*D40
340
0
  0
BLOCK_RECORD
  5
263
330
1
100
AcDbSymbolTableRecord
100
AcDbBlockTableRecord
  2
*D41
340
0
  0
BLOCK_RECORD
  5
26E
330
1
100
AcDbSymbolTableRecord
100
AcDbBlockTableRecord
  2
*D42
340
0
  0
ENDTAB
  0
ENDSEC
  0
SECTION
  2
BLOCKS
  0
BLOCK
  5
20
330
1F
100
AcDbEntity
  8
0
100
AcDbBlockBegin
  2
*Model_Space
 70
     0
 10
0.0
 20
0.0
 30
0.0
  3
*Model_Space
  1

  0
ENDBLK
  5
21
330
1F
100
AcDbEntity
  8
0
100
AcDbBlockEnd
  0
BLOCK
  5
1C
330
1B
100
AcDbEntity
 67
     1
  8
0
100
AcDbBlockBegin
  2
*Paper_Space
 70
     0
 10
0.0
 20
0.0
 30
0.0
  3
*Paper_Space
  1

  0
ENDBLK
  5
1D
330
1B
100
AcDbEntity
 67
     1
  8
0
100
AcDbBlockEnd
  0
BLOCK
  5
24
330
23
100
AcDbEntity
  8
0
100
AcDbBlockBegin
  2
*Paper_Space0
 70
     0
 10
0.0
 20
0.0
 30
0.0
  3
*Paper_Space0
  1

  0
ENDBLK
  5
25
330
23
100
AcDbEntity
  8
0
100
AcDbBlockEnd
  0
BLOCK
  5
49
330
48
100
AcDbEntity
  8
0
100
AcDbBlockBegin
  2
classic_matt_außen__1
 70
     0
 10
53.19999999921942
 20
243.8393386840258
 30
0.0
  3
classic_matt_außen__1
  1

  0
LINE
  5
B0
330
48
100
AcDbEntity
  8
0
  6
Continuous
 62
     7
100
AcDbLine
 10
53.19999999921942
 20
263.8393386840259
 30
0.0
 11
53.19999999921942
 21
243.8393386840258
 31
0.0
  0
LINE
  5
B1
330
48
100
AcDbEntity
  8
0
  6
Continuous
 62
     7
100
AcDbLine
 10
185.1999999992303
 20
243.8393386840259
 30
0.0
 11
185.1999999992303
 21
263.839338684026
 31
0.0
  0
LINE
  5
B2
330
48
100
AcDbEntity
  8
0
  6
Continuous
 62
     7
100
AcDbLine
 10
185.1999999992303
 20
263.839338684026
 30
0.0
 11
53.19999999921942
 21
263.8393386840259
 31
0.0
  0
LINE
  5
B3
330
48
100
AcDbEntity
  8
0
  6
Continuous
 62
     7
100
AcDbLine
 10
53.19999999921942
 20
243.8393386840258
 30
0.0
 11
185.1999999992303
 21
243.8393386840259
 31
0.0
  0
ENDBLK
  5
4A
330
48
100
AcDbEntity
  8
0
100
AcDbBlockEnd
  0
BLOCK
  5
4D
330
4B
100
AcDbEntity
  8
0
100
AcDbBlockBegin
  2
classic_contact_matt_1__2
 70
     0
 10
53.19999999921942
 20
243.8393386840258
 30
0.0
  3
classic_contact_matt_1__2
  1

  0
INSERT
  5
4C
330
4B
100
AcDbEntity
  8
0
100
AcDbBlockReference
  2
classic_matt_außen__1
 10
53.19999999921942
 20
243.8393386840258
 30
0.0
  0
ENDBLK
  5
4E
330
4B
100
AcDbEntity
  8
0
100
AcDbBlockEnd
  0
BLOCK
  5
50
330
4F
100
AcDbEntity
  8
0
100
AcDbBlockBegin
  2
grundkoerper__3
 70
     0
 10
46.19999999921965
 20
238.1393386840278
 30
0.0
  3
grundkoerper__3
  1

  0
LINE
  5
B4
330
4F
100
AcDbEntity
  8
0
  6
Continuous
 62
     7
100
AcDbLine
 10
89.74999999922005
 20
239.5893386840285
 30
0.0
 11
97.24999999922005
 21
239.5893386840285
 31
0.0
  0
LINE
  5
B5
330
4F
100
AcDbEntity
  8
0
  6
Continuous
 62
     7
100
AcDbLine
 10
84.69999999921961
 20
239.5893386840285
 30
0.0
 11
84.69999999921961
 21
242.3393386840277
 31
0.0
  0
LINE
  5
B6
330
4F
100
AcDbEntity
  8
0
  6
Continuous
 62
     7
100
AcDbLine
 10
106.1999999992196
 20
238.1393386840285
 30
0.0
 11
106.1999999992196
 21
242.3393386840277
 31
0.0
  0
LINE
  5
B7
330
4F
100
AcDbEntity
  8
0
  6
Continuous
 62
     7
100
AcDbLine
 10
96.24999999922005
 20
242.3393386840277
 30
0.0
 11
96.24999999922005
 21
241.3393386840277
 31
0.0
  0
LINE
  5
B8
330
4F
100
AcDbEntity
  8
0
  6
Continuous
 62
     7
100
AcDbLine
 10
97.24999999922005
 20
241.3393386840277
 30
0.0
 11
96.24999999922005
 21
241.3393386840277
 31
0.0
  0
LINE
  5
B9
330
4F
100
AcDbEntity
  8
0
  6
Continuous
 62
     7
100
AcDbLine
 10
97.24999999922005
 20
239.5893386840285
 30
0.0
 11
97.24999999922005
 21
241.3393386840277
 31
0.0
  0
LINE
  5
BA
330
4F
100
AcDbEntity
  8
0
  6
Continuous
 62
     7
100
AcDbLine
 10
98.69999999922004
 20
239.5893386840285
 30
0.0
 11
104.7499999992197
 21
239.5893386840285
 31
0.0
  0
LINE
  5
BB
330
4F
100
AcDbEntity
  8
0
  6
Continuous
 62
     7
100
AcDbLine
 10
89.74999999922005
 20
241.3393386840278
 30
0.0
 11
89.74999999922005
 21
239.5893386840285
 31
0.0
  0
LINE
  5
BC
330
4F
100
AcDbEntity
  8
0
  6
Continuous
 62
     7
100
AcDbLine
 10
90.74999999922007
 20
241.3393386840278
 30
0.0
 11
89.74999999922005
 21
241.3393386840278
 31
0.0
  0
LINE
  5
BD
330
4F
100
AcDbEntity
  8
0
  6
Continuous
 62
     7
100
AcDbLine
 10
84.69999999921961
 20
239.5893386840285
 30
0.0
 11
88.29999999922003
 21
239.5893386840285
 31
0.0
  0
LINE
  5
BE
330
4F
100
AcDbEntity
  8
0
  6
Continuous
 62
     7
100
AcDbLine
 10
48.19999999921965
 20
242.3393386840284
 30
0.0
 11
48.19999999921965
 21
275.1393386840277
 31
0.0
  0
LINE
  5
BF
330
4F
100
AcDbEntity
  8
0
  6
Continuous
 62
     7
100
AcDbLine
 10
49.64999999921965
 20
242.3393386840284
 30
0.0
 11
49.64999999921965
 21
239.5893386840285
 31
0.0
  0
LINE
  5
C0
330
4F
100
AcDbEntity
  8
0
  6
Continuous
 62
     7
100
AcDbLine
 10
55.69999999921968
 20
239.5893386840285
 30
0.0
 11
55.69999999921968
 21
242.3393386840278
 31
0.0
  0
LINE
  5
C1
330
4F
100
AcDbEntity
  8
0
  6
Continuous
 62
     7
100
AcDbLine
 10
57.14999999921967
 20
241.3393386840279
 30
0.0
 11
57.14999999921967
 21
239.5893386840285
 31
0.0
  0
LINE
  5
C2
330
4F
100
AcDbEntity
  8
0
  6
Continuous
 62
     7
100
AcDbLine
 10
64.64999999921967
 20
239.5893386840285
 30
0.0
 11
64.64999999921967
 21
241.3393386840279
 31
0.0
  0
LINE
  5
C3
330
4F
100
AcDbEntity
  8
0
  6
Continuous
 62
     7
100
AcDbLine
 10
64.64999999921967
 20
241.3393386840279
 30
0.0
 11
63.64999999921968
 21
241.3393386840279
 31
0.0
  0
LINE
  5
C4
330
4F
100
AcDbEntity
  8
0
  6
Continuous
 62
     7
100
AcDbLine
 10
63.64999999921968
 20
242.3393386840279
 30
0.0
 11
63.64999999921968
 21
241.3393386840279
 31
0.0
  0
LINE
  5
C5
330
4F
100
AcDbEntity
  8
0
  6
Continuous
 62
     7
100
AcDbLine
 10
58.14999999921971
 20
241.3393386840279
 30
0.0
 11
57.14999999921967
 21
241.3393386840279
 31
0.0
  0
LINE
  5
C6
330
4F
100
AcDbEntity
  8
0
  6
Continuous
 62
     7
100
AcDbLine
 10
58.14999999921971
 20
242.3393386840279
 30
0.0
 11
58.14999999921971
 21
241.3393386840279
 31
0.0
  0
LINE
  5
C7
330
4F
100
AcDbEntity
  8
0
  6
Continuous
 62
     7
100
AcDbLine
 10
46.19999999921965
 20
275.1393386840277
 30
0.0
 11
46.19999999921965
 21
238.1393386840278
 31
0.0
  0
LINE
  5
C8
330
4F
100
AcDbEntity
  8
0
  6
Continuous
 62
     7
100
AcDbLine
 10
90.74999999922007
 20
242.3393386840278
 30
0.0
 11
90.74999999922007
 21
241.3393386840278
 31
0.0
  0
LINE
  5
C9
330
4F
100
AcDbEntity
  8
0
  6
Continuous
 62
     7
100
AcDbLine
 10
70.94999999921961
 20
242.3393386840277
 30
0.0
 11
69.69999999921961
 21
242.3393386840277
 31
0.0
  0
LINE
  5
CA
330
4F
100
AcDbEntity
  8
0
  6
Continuous
 62
     7
100
AcDbLine
 10
46.19999999921965
 20
275.1393386840277
 30
0.0
 11
48.19999999921965
 21
275.1393386840277
 31
0.0
  0
LINE
  5
CB
330
4F
100
AcDbEntity
  8
0
  6
Continuous
 62
     7
100
AcDbLine
 10
48.19999999921965
 20
242.3393386840284
 30
0.0
 11
49.64999999921965
 21
242.3393386840284
 31
0.0
  0
LINE
  5
CC
330
4F
100
AcDbEntity
  8
0
  6
Continuous
 62
     7
100
AcDbLine
 10
55.69999999921968
 20
242.3393386840278
 30
0.0
 11
58.14999999921971
 21
242.3393386840279
 31
0.0
  0
LINE
  5
CD
330
4F
100
AcDbEntity
  8
0
  6
Continuous
 62
     7
100
AcDbLine
 10
63.64999999921968
 20
242.3393386840279
 30
0.0
 11
66.09999999921968
 21
242.3393386840279
 31
0.0
  0
LINE
  5
CE
330
4F
100
AcDbEntity
  8
0
  6
Continuous
 62
     7
100
AcDbLine
 10
104.7499999992197
 20
239.5893386840285
 30
0.0
 11
104.7499999992197
 21
242.3393386840278
 31
0.0
  0
LINE
  5
CF
330
4F
100
AcDbEntity
  8
0
  6
Continuous
 62
     7
100
AcDbLine
 10
83.44999999921961
 20
242.3393386840277
 30
0.0
 11
83.44999999921961
 21
239.5893386840285
 31
0.0
  0
LINE
  5
D0
330
4F
100
AcDbEntity
  8
0
  6
Continuous
 62
     7
100
AcDbLine
 10
98.69999999922004
 20
242.3393386840277
 30
0.0
 11
98.69999999922004
 21
239.5893386840285
 31
0.0
  0
LINE
  5
D1
330
4F
100
AcDbEntity
  8
0
  6
Continuous
 62
     7
100
AcDbLine
 10
66.09999999921968
 20
242.3393386840279
 30
0.0
 11
66.09999999921968
 21
239.5893386840285
 31
0.0
  0
LINE
  5
D2
330
4F
100
AcDbEntity
  8
0
  6
Continuous
 62
     7
100
AcDbLine
 10
88.29999999922003
 20
242.3393386840278
 30
0.0
 11
88.29999999922003
 21
239.5893386840285
 31
0.0
  0
LINE
  5
D3
330
4F
100
AcDbEntity
  8
0
  6
Continuous
 62
     7
100
AcDbLine
 10
70.94999999921961
 20
239.5893386840285
 30
0.0
 11
70.94999999921961
 21
242.3393386840277
 31
0.0
  0
LINE
  5
D4
330
4F
100
AcDbEntity
  8
0
  6
Continuous
 62
     7
100
AcDbLine
 10
69.69999999921961
 20
242.3393386840277
 30
0.0
 11
69.69999999921961
 21
239.5893386840285
 31
0.0
  0
LINE
  5
D5
330
4F
100
AcDbEntity
  8
0
  6
Continuous
 62
     7
100
AcDbLine
 10
46.19999999921965
 20
238.1393386840278
 30
0.0
 11
106.1999999992196
 21
238.1393386840285
 31
0.0
  0
LINE
  5
D6
330
4F
100
AcDbEntity
  8
0
  6
Continuous
 62
     7
100
AcDbLine
 10
70.94999999921961
 20
239.5893386840285
 30
0.0
 11
83.44999999921961
 21
239.5893386840285
 31
0.0
  0
LINE
  5
D7
330
4F
100
AcDbEntity
  8
0
  6
Continuous
 62
     7
100
AcDbLine
 10
49.64999999921965
 20
239.5893386840285
 30
0.0
 11
55.69999999921968
 21
239.5893386840285
 31
0.0
  0
LINE
  5
D8
330
4F
100
AcDbEntity
  8
0
  6
Continuous
 62
     7
100
AcDbLine
 10
57.14999999921967
 20
239.5893386840285
 30
0.0
 11
64.64999999921967
 21
239.5893386840285
 31
0.0
  0
LINE
  5
D9
330
4F
100
AcDbEntity
  8
0
  6
Continuous
 62
     7
100
AcDbLine
 10
66.09999999921968
 20
239.5893386840285
 30
0.0
 11
69.69999999921961
 21
239.5893386840285
 31
0.0
  0
LINE
  5
DA
330
4F
100
AcDbEntity
  8
0
  6
Continuous
 62
     7
100
AcDbLine
 10
88.29999999922003
 20
242.3393386840278
 30
0.0
 11
90.74999999922007
 21
242.3393386840278
 31
0.0
  0
LINE
  5
DB
330
4F
100
AcDbEntity
  8
0
  6
Continuous
 62
     7
100
AcDbLine
 10
96.24999999922005
 20
242.3393386840277
 30
0.0
 11
98.69999999922004
 21
242.3393386840277
 31
0.0
  0
LINE
  5
DC
330
4F
100
AcDbEntity
  8
0
  6
Continuous
 62
     7
100
AcDbLine
 10
84.69999999921961
 20
242.3393386840277
 30
0.0
 11
83.44999999921961
 21
242.3393386840277
 31
0.0
  0
LINE
  5
DD
330
4F
100
AcDbEntity
  8
0
  6
Continuous
 62
     7
100
AcDbLine
 10
104.7499999992197
 20
242.3393386840278
 30
0.0
 11
106.1999999992196
 21
242.3393386840277
 31
0.0
  0
ENDBLK
  5
51
330
4F
100
AcDbEntity
  8
0
100
AcDbBlockEnd
  0
BLOCK
  5
53
330
52
100
AcDbEntity
  8
0
100
AcDbBlockBegin
  2
SAW22_Rev01_bauteil__ausgeklinkt__4
 70
     0
 10
44.99999999922032
 20
265.1393386840279
 30
0.0
  3
SAW22_Rev01_bauteil__ausgeklinkt__4
  1

  0
LINE
  5
DE
330
52
100
AcDbEntity
  8
0
  6
Continuous
 62
     7
100
AcDbLine
 10
45.99999999922036
 20
275.1393386840279
 30
0.0
 11
46.07999999922036
 21
274.1393386840279
 31
0.0
  0
LINE
  5
DF
330
52
100
AcDbEntity
  8
0
  6
Continuous
 62
     7
100
AcDbLine
 10
49.54999999922048
 20
265.3393386840279
 30
0.0
 11
49.34999999922048
 21
265.1393386840279
 31
0.0
  0
LINE
  5
E0
330
52
100
AcDbEntity
  8
0
  6
Continuous
 62
     7
100
AcDbLine
 10
49.34999999922048
 20
265.1393386840279
 30
0.0
 11
48.34999999922047
 21
265.1393386840279
 31
0.0
  0
LINE
  5
E1
330
52
100
AcDbEntity
  8
0
  6
Continuous
 62
     7
100
AcDbLine
 10
45.19999999922031
 20
276.3393386840279
 30
0.0
 11
44.99999999922032
 21
276.1393386840279
 31
0.0
  0
LINE
  5
E2
330
52
100
AcDbEntity
  8
0
  6
Continuous
 62
     7
100
AcDbLine
 10
45.19999999922031
 20
276.3393386840279
 30
0.0
 11
66.9999999992203
 21
276.3393386840279
 31
0.0
  0
LINE
  5
E3
330
52
100
AcDbEntity
  8
0
  6
Continuous
 62
     7
100
AcDbLine
 10
48.34999999922047
 20
265.1393386840279
 30
0.0
 11
48.34999999922047
 21
275.1393386840279
 31
0.0
  0
LINE
  5
E4
330
52
100
AcDbEntity
  8
0
  6
Continuous
 62
     7
100
AcDbLine
 10
46.19999999921965
 20
275.1393386840277
 30
0.0
 11
48.19999999921965
 21
275.1393386840277
 31
0.0
  0
LINE
  5
E5
330
52
100
AcDbEntity
  8
0
  6
Continuous
 62
     7
100
AcDbLine
 10
46.19999999921965
 20
275.1393386840277
 30
0.0
 11
45.99999999922036
 21
275.1393386840279
 31
0.0
  0
LINE
  5
E6
330
52
100
AcDbEntity
  8
0
  6
Continuous
 62
     7
100
AcDbLine
 10
48.34999999922047
 20
275.1393386840279
 30
0.0
 11
48.19999999921965
 21
275.1393386840277
 31
0.0
  0
LINE
  5
E7
330
52
100
AcDbEntity
  8
0
  6
Continuous
 62
     7
100
AcDbLine
 10
49.54999999922047
 20
275.1393386840279
 30
0.0
 11
49.54999999922048
 21
265.3393386840279
 31
0.0
  0
LINE
  5
E8
330
52
100
AcDbEntity
  8
0
  6
Continuous
 62
     7
100
AcDbLine
 10
44.99999999922032
 20
274.1393386840279
 30
0.0
 11
44.99999999922032
 21
276.1393386840279
 31
0.0
  0
LINE
  5
E9
330
52
100
AcDbEntity
  8
0
  6
Continuous
 62
     7
100
AcDbLine
 10
44.99999999922032
 20
274.1393386840279
 30
0.0
 11
46.07999999922036
 21
274.1393386840279
 31
0.0
  0
LINE
  5
EA
330
52
100
AcDbEntity
  8
0
  6
Continuous
 62
     7
100
AcDbLine
 10
66.9999999992203
 20
275.1393386840279
 30
0.0
 11
49.54999999922047
 21
275.1393386840279
 31
0.0
  0
LINE
  5
EB
330
52
100
AcDbEntity
  8
0
  6
Continuous
 62
     7
100
AcDbLine
 10
66.9999999992203
 20
276.3393386840279
 30
0.0
 11
66.9999999992203
 21
275.1393386840279
 31
0.0
  0
ENDBLK
  5
54
330
52
100
AcDbEntity
  8
0
100
AcDbBlockEnd
  0
BLOCK
  5
59
330
55
100
AcDbEntity
  8
0
100
AcDbBlockBegin
  2
SlidePal_L_22mm__5
 70
     0
 10
44.99999999922032
 20
238.1393386840278
 30
0.0
  3
SlidePal_L_22mm__5
  1

  0
INSERT
  5
56
330
55
100
AcDbEntity
  8
0
100
AcDbBlockReference
  2
classic_contact_matt_1__2
 10
53.19999999921942
 20
243.8393386840258
 30
0.0
  0
INSERT
  5
57
330
55
100
AcDbEntity
  8
0
100
AcDbBlockReference
  2
grundkoerper__3
 10
46.19999999921965
 20
238.1393386840278
 30
0.0
  0
INSERT
  5
58
330
55
100
AcDbEntity
  8
0
100
AcDbBlockReference
  2
SAW22_Rev01_bauteil__ausgeklinkt__4
 10
44.99999999922032
 20
265.1393386840279
 30
0.0
  0
ENDBLK
  5
5A
330
55
100
AcDbEntity
  8
0
100
AcDbBlockEnd
  0
BLOCK
  5
5D
330
5B
100
AcDbEntity
  8
0
100
AcDbBlockBegin
  2
Std_SlidePal_U22
 70
     0
 10
76.19999999999999
 20
250.8
 30
0.0
  3
Std_SlidePal_U22
  1

  0
INSERT
  5
5C
330
5B
100
AcDbEntity
  8
0
100
AcDbBlockReference
  2
SlidePal_L_22mm__5
 10
44.99999999922032
 20
238.1393386840278
 30
0.0
  0
MTEXT
  5
ED
330
5B
100
AcDbEntity
  8
1
 62
     7
100
AcDbMText
 10
86.39999995153902
 20
255.839338684026
 30
0.0
 40
3.5
 41
0.0
 71
     2
 72
     1
  1
SlidePal U22
  7
CONVERTER_11
 73
     1
 44
1.32052821128451
  0
DIMENSION
  5
F9
330
5B
100
AcDbEntity
  8
1
100
AcDbDimension
  2
*D27
 10
46.19999999921966
 20
235.5141756008739
 30
0.0
 11
110.6999999992197
 21
237.7641756008739
 31
0.0
 70
    33
  1
<>
 71
     5
 42
-1.0
 53
0.00013888888889
  3
ME10_DIM_10
100
AcDbAlignedDimension
 13
106.1999999992196
 23
238.1393386840285
 33
0.0
 14
46.19999999921965
 24
238.1393386840278
 34
0.0
  0
DIMENSION
  5
104
330
5B
100
AcDbEntity
  8
1
100
AcDbDimension
  2
*D28
 10
48.19999999921966
 20
269.1473704189199
 30
0.0
 11
57.59999999921997
 21
271.3973704189199
 31
0.0
 70
    33
  1
18.5
 71
     5
 42
-1.0
 53
0.00013888888889
  3
ME10_DIM_11
100
AcDbAlignedDimension
 13
66.9999999992203
 23
275.1393386840279
 33
0.0
 14
48.19999999921965
 24
275.1393386840277
 34
0.0
  0
DIMENSION
  5
10F
330
5B
100
AcDbEntity
  8
1
100
AcDbDimension
  2
*D29
 10
44.99999999922032
 20
283.4221156993889
 30
0.0
 11
55.99999999922031
 21
285.6721156993889
 31
0.0
 70
    32
  1
<>
 71
     5
 42
-1.0
 53
0.00013888888889
  3
ME10_DIM_12
100
AcDbAlignedDimension
 13
66.9999999992203
 23
276.3393386840279
 33
0.0
 14
44.99999999922032
 24
276.1393386840279
 34
0.0
100
AcDbRotatedDimension
  0
DIMENSION
  5
11A
330
5B
100
AcDbEntity
  8
1
100
AcDbDimension
  2
*D30
 10
37.9787615974372
 20
276.3393386840278
 30
0.0
 11
35.7287615974372
 21
257.2393386840278
 31
0.0
 70
    32
  1
<>
 71
     5
 42
-1.0
 53
90.0
  3
ME10_DIM_13
100
AcDbAlignedDimension
 13
46.19999999921965
 23
238.1393386840278
 33
0.0
 14
45.19999999922031
 24
276.3393386840279
 34
0.0
 50
90.0
100
AcDbRotatedDimension
  0
ENDBLK
  5
5E
330
5B
100
AcDbEntity
  8
0
100
AcDbBlockEnd
  0
BLOCK
  5
60
330
5F
100
AcDbEntity
  8
0
100
AcDbBlockBegin
  2
grundkoerper__6
 70
     0
 10
46.19999999921964
 20
183.3393386840278
 30
0.0
  3
grundkoerper__6
  1

  0
LINE
  5
11B
330
5F
100
AcDbEntity
  8
0
  6
Continuous
 62
     7
100
AcDbLine
 10
46.19999999921964
 20
220.3393386840278
 30
0.0
 11
48.19999999921964
 21
220.3393386840278
 31
0.0
  0
LINE
  5
11C
330
5F
100
AcDbEntity
  8
0
  6
Continuous
 62
     7
100
AcDbLine
 10
57.14999999921967
 20
184.7893386840287
 30
0.0
 11
64.64999999921967
 21
184.7893386840287
 31
0.0
  0
LINE
  5
11D
330
5F
100
AcDbEntity
  8
0
  6
Continuous
 62
     7
100
AcDbLine
 10
49.64999999921964
 20
184.7893386840287
 30
0.0
 11
55.69999999921967
 21
184.7893386840287
 31
0.0
  0
LINE
  5
11E
330
5F
100
AcDbEntity
  8
0
  6
Continuous
 62
     7
100
AcDbLine
 10
66.09999999921968
 20
184.7893386840287
 30
0.0
 11
69.6999999992196
 21
184.7893386840287
 31
0.0
  0
LINE
  5
11F
330
5F
100
AcDbEntity
  8
0
  6
Continuous
 62
     7
100
AcDbLine
 10
70.94999999921961
 20
187.5393386840279
 30
0.0
 11
69.6999999992196
 21
187.5393386840279
 31
0.0
  0
LINE
  5
120
330
5F
100
AcDbEntity
  8
0
  6
Continuous
 62
     7
100
AcDbLine
 10
69.6999999992196
 20
187.5393386840279
 30
0.0
 11
69.6999999992196
 21
184.7893386840287
 31
0.0
  0
LINE
  5
121
330
5F
100
AcDbEntity
  8
0
  6
Continuous
 62
     7
100
AcDbLine
 10
70.94999999921961
 20
184.7893386840287
 30
0.0
 11
70.94999999921961
 21
187.5393386840279
 31
0.0
  0
LINE
  5
122
330
5F
100
AcDbEntity
  8
0
  6
Continuous
 62
     7
100
AcDbLine
 10
66.09999999921968
 20
187.539338684028
 30
0.0
 11
66.09999999921968
 21
184.7893386840287
 31
0.0
  0
LINE
  5
123
330
5F
100
AcDbEntity
  8
0
  6
Continuous
 62
     7
100
AcDbLine
 10
63.64999999921967
 20
187.539338684028
 30
0.0
 11
66.09999999921968
 21
187.539338684028
 31
0.0
  0
LINE
  5
124
330
5F
100
AcDbEntity
  8
0
  6
Continuous
 62
     7
100
AcDbLine
 10
57.14999999921967
 20
186.539338684028
 30
0.0
 11
57.14999999921967
 21
184.7893386840287
 31
0.0
  0
LINE
  5
125
330
5F
100
AcDbEntity
  8
0
  6
Continuous
 62
     7
100
AcDbLine
 10
64.64999999921967
 20
184.7893386840287
 30
0.0
 11
64.64999999921967
 21
186.539338684028
 31
0.0
  0
LINE
  5
126
330
5F
100
AcDbEntity
  8
0
  6
Continuous
 62
     7
100
AcDbLine
 10
58.1499999992197
 20
186.539338684028
 30
0.0
 11
57.14999999921967
 21
186.539338684028
 31
0.0
  0
LINE
  5
127
330
5F
100
AcDbEntity
  8
0
  6
Continuous
 62
     7
100
AcDbLine
 10
64.64999999921967
 20
186.539338684028
 30
0.0
 11
63.64999999921967
 21
186.539338684028
 31
0.0
  0
LINE
  5
128
330
5F
100
AcDbEntity
  8
0
  6
Continuous
 62
     7
100
AcDbLine
 10
55.69999999921967
 20
184.7893386840287
 30
0.0
 11
55.69999999921967
 21
187.539338684028
 31
0.0
  0
LINE
  5
129
330
5F
100
AcDbEntity
  8
0
  6
Continuous
 62
     7
100
AcDbLine
 10
58.1499999992197
 20
187.539338684028
 30
0.0
 11
58.1499999992197
 21
186.539338684028
 31
0.0
  0
LINE
  5
12A
330
5F
100
AcDbEntity
  8
0
  6
Continuous
 62
     7
100
AcDbLine
 10
63.64999999921967
 20
187.539338684028
 30
0.0
 11
63.64999999921967
 21
186.539338684028
 31
0.0
  0
LINE
  5
12B
330
5F
100
AcDbEntity
  8
0
  6
Continuous
 62
     7
100
AcDbLine
 10
49.64999999921964
 20
187.5393386840285
 30
0.0
 11
49.64999999921964
 21
184.7893386840287
 31
0.0
  0
LINE
  5
12C
330
5F
100
AcDbEntity
  8
0
  6
Continuous
 62
     7
100
AcDbLine
 10
55.69999999921967
 20
187.539338684028
 30
0.0
 11
58.1499999992197
 21
187.539338684028
 31
0.0
  0
LINE
  5
12D
330
5F
100
AcDbEntity
  8
0
  6
Continuous
 62
     7
100
AcDbLine
 10
48.19999999921964
 20
187.5393386840285
 30
0.0
 11
49.64999999921964
 21
187.5393386840285
 31
0.0
  0
LINE
  5
12E
330
5F
100
AcDbEntity
  8
0
  6
Continuous
 62
     7
100
AcDbLine
 10
46.19999999921964
 20
183.3393386840278
 30
0.0
 11
106.1999999992196
 21
183.3393386840287
 31
0.0
  0
LINE
  5
12F
330
5F
100
AcDbEntity
  8
0
  6
Continuous
 62
     7
100
AcDbLine
 10
70.94999999921961
 20
184.7893386840287
 30
0.0
 11
83.4499999992196
 21
184.7893386840287
 31
0.0
  0
LINE
  5
130
330
5F
100
AcDbEntity
  8
0
  6
Continuous
 62
     7
100
AcDbLine
 10
84.69999999921961
 20
184.7893386840287
 30
0.0
 11
88.29999999922003
 21
184.7893386840287
 31
0.0
  0
LINE
  5
131
330
5F
100
AcDbEntity
  8
0
  6
Continuous
 62
     7
100
AcDbLine
 10
89.74999999922004
 20
184.7893386840287
 30
0.0
 11
97.24999999922004
 21
184.7893386840287
 31
0.0
  0
LINE
  5
132
330
5F
100
AcDbEntity
  8
0
  6
Continuous
 62
     7
100
AcDbLine
 10
98.69999999922004
 20
184.7893386840287
 30
0.0
 11
104.7499999992196
 21
184.7893386840287
 31
0.0
  0
LINE
  5
133
330
5F
100
AcDbEntity
  8
0
  6
Continuous
 62
     7
100
AcDbLine
 10
46.19999999921964
 20
220.3393386840278
 30
0.0
 11
46.19999999921964
 21
183.3393386840278
 31
0.0
  0
LINE
  5
134
330
5F
100
AcDbEntity
  8
0
  6
Continuous
 62
     7
100
AcDbLine
 10
106.1999999992196
 20
183.3393386840287
 30
0.0
 11
106.1999999992196
 21
187.5393386840279
 31
0.0
  0
LINE
  5
135
330
5F
100
AcDbEntity
  8
0
  6
Continuous
 62
     7
100
AcDbLine
 10
90.74999999922007
 20
187.5393386840279
 30
0.0
 11
90.74999999922007
 21
186.5393386840279
 31
0.0
  0
LINE
  5
136
330
5F
100
AcDbEntity
  8
0
  6
Continuous
 62
     7
100
AcDbLine
 10
97.24999999922004
 20
186.5393386840279
 30
0.0
 11
96.24999999922004
 21
186.5393386840279
 31
0.0
  0
LINE
  5
137
330
5F
100
AcDbEntity
  8
0
  6
Continuous
 62
     7
100
AcDbLine
 10
96.24999999922004
 20
187.5393386840279
 30
0.0
 11
98.69999999922004
 21
187.5393386840279
 31
0.0
  0
LINE
  5
138
330
5F
100
AcDbEntity
  8
0
  6
Continuous
 62
     7
100
AcDbLine
 10
96.24999999922004
 20
187.5393386840279
 30
0.0
 11
96.24999999922004
 21
186.5393386840279
 31
0.0
  0
LINE
  5
139
330
5F
100
AcDbEntity
  8
0
  6
Continuous
 62
     7
100
AcDbLine
 10
104.7499999992196
 20
184.7893386840287
 30
0.0
 11
104.7499999992196
 21
187.5393386840279
 31
0.0
  0
LINE
  5
13A
330
5F
100
AcDbEntity
  8
0
  6
Continuous
 62
     7
100
AcDbLine
 10
83.4499999992196
 20
187.5393386840278
 30
0.0
 11
83.4499999992196
 21
184.7893386840287
 31
0.0
  0
LINE
  5
13B
330
5F
100
AcDbEntity
  8
0
  6
Continuous
 62
     7
100
AcDbLine
 10
84.69999999921961
 20
184.7893386840287
 30
0.0
 11
84.69999999921961
 21
187.5393386840278
 31
0.0
  0
LINE
  5
13C
330
5F
100
AcDbEntity
  8
0
  6
Continuous
 62
     7
100
AcDbLine
 10
88.29999999922003
 20
187.5393386840279
 30
0.0
 11
88.29999999922003
 21
184.7893386840287
 31
0.0
  0
LINE
  5
13D
330
5F
100
AcDbEntity
  8
0
  6
Continuous
 62
     7
100
AcDbLine
 10
89.74999999922004
 20
186.5393386840279
 30
0.0
 11
89.74999999922004
 21
184.7893386840287
 31
0.0
  0
LINE
  5
13E
330
5F
100
AcDbEntity
  8
0
  6
Continuous
 62
     7
100
AcDbLine
 10
97.24999999922004
 20
184.7893386840287
 30
0.0
 11
97.24999999922004
 21
186.5393386840279
 31
0.0
  0
LINE
  5
13F
330
5F
100
AcDbEntity
  8
0
  6
Continuous
 62
     7
100
AcDbLine
 10
98.69999999922004
 20
187.5393386840279
 30
0.0
 11
98.69999999922004
 21
184.7893386840287
 31
0.0
  0
LINE
  5
140
330
5F
100
AcDbEntity
  8
0
  6
Continuous
 62
     7
100
AcDbLine
 10
90.74999999922007
 20
186.5393386840279
 30
0.0
 11
89.74999999922004
 21
186.5393386840279
 31
0.0
  0
LINE
  5
141
330
5F
100
AcDbEntity
  8
0
  6
Continuous
 62
     7
100
AcDbLine
 10
48.19999999921964
 20
187.5393386840285
 30
0.0
 11
48.19999999921964
 21
220.3393386840278
 31
0.0
  0
LINE
  5
142
330
5F
100
AcDbEntity
  8
0
  6
Continuous
 62
     7
100
AcDbLine
 10
84.69999999921961
 20
187.5393386840278
 30
0.0
 11
83.4499999992196
 21
187.5393386840278
 31
0.0
  0
LINE
  5
143
330
5F
100
AcDbEntity
  8
0
  6
Continuous
 62
     7
100
AcDbLine
 10
88.29999999922003
 20
187.5393386840279
 30
0.0
 11
90.74999999922007
 21
187.5393386840279
 31
0.0
  0
LINE
  5
144
330
5F
100
AcDbEntity
  8
0
  6
Continuous
 62
     7
100
AcDbLine
 10
104.7499999992196
 20
187.5393386840279
 30
0.0
 11
106.1999999992196
 21
187.5393386840279
 31
0.0
  0
ENDBLK
  5
61
330
5F
100
AcDbEntity
  8
0
100
AcDbBlockEnd
  0
BLOCK
  5
63
330
62
100
AcDbEntity
  8
0
100
AcDbBlockBegin
  2
classic_matt_außen__7
 70
     0
 10
53.19999999921942
 20
189.0393386840259
 30
0.0
  3
classic_matt_außen__7
  1

  0
LINE
  5
145
330
62
100
AcDbEntity
  8
0
  6
Continuous
 62
     7
100
AcDbLine
 10
185.1999999992303
 20
209.039338684026
 30
0.0
 11
53.19999999921942
 21
209.039338684026
 31
0.0
  0
LINE
  5
146
330
62
100
AcDbEntity
  8
0
  6
Continuous
 62
     7
100
AcDbLine
 10
185.1999999992303
 20
189.0393386840259
 30
0.0
 11
185.1999999992303
 21
209.039338684026
 31
0.0
  0
LINE
  5
147
330
62
100
AcDbEntity
  8
0
  6
Continuous
 62
     7
100
AcDbLine
 10
53.19999999921942
 20
209.039338684026
 30
0.0
 11
53.19999999921942
 21
189.0393386840259
 31
0.0
  0
LINE
  5
148
330
62
100
AcDbEntity
  8
0
  6
Continuous
 62
     7
100
AcDbLine
 10
53.19999999921942
 20
189.0393386840259
 30
0.0
 11
185.1999999992303
 21
189.0393386840259
 31
0.0
  0
ENDBLK
  5
64
330
62
100
AcDbEntity
  8
0
100
AcDbBlockEnd
  0
BLOCK
  5
67
330
65
100
AcDbEntity
  8
0
100
AcDbBlockBegin
  2
classic_contact_matt_1__8
 70
     0
 10
53.19999999921942
 20
189.0393386840259
 30
0.0
  3
classic_contact_matt_1__8
  1

  0
INSERT
  5
66
330
65
100
AcDbEntity
  8
0
100
AcDbBlockReference
  2
classic_matt_außen__7
 10
53.19999999921942
 20
189.0393386840259
 30
0.0
  0
ENDBLK
  5
68
330
65
100
AcDbEntity
  8
0
100
AcDbBlockEnd
  0
BLOCK
  5
6A
330
69
100
AcDbEntity
  8
0
100
AcDbBlockBegin
  2
SAW34_Rev01_bauteil__ausgeklinkt__9
 70
     0
 10
44.99999999922032
 20
210.3393386840279
 30
0.0
  3
SAW34_Rev01_bauteil__ausgeklinkt__9
  1

  0
LINE
  5
149
330
69
100
AcDbEntity
  8
0
  6
Continuous
 62
     7
100
AcDbLine
 10
45.99999999922036
 20
220.3393386840279
 30
0.0
 11
46.07999999922036
 21
219.3393386840279
 31
0.0
  0
LINE
  5
14A
330
69
100
AcDbEntity
  8
0
  6
Continuous
 62
     7
100
AcDbLine
 10
45.19999999922031
 20
221.5393386840279
 30
0.0
 11
44.99999999922032
 21
221.3393386840279
 31
0.0
  0
LINE
  5
14B
330
69
100
AcDbEntity
  8
0
  6
Continuous
 62
     7
100
AcDbLine
 10
78.99999999922032
 20
221.5393386840279
 30
0.0
 11
78.99999999922032
 21
220.3393386840279
 31
0.0
  0
LINE
  5
14C
330
69
100
AcDbEntity
  8
0
  6
Continuous
 62
     7
100
AcDbLine
 10
78.99999999922032
 20
220.3393386840279
 30
0.0
 11
49.54999999922047
 21
220.3393386840279
 31
0.0
  0
LINE
  5
14D
330
69
100
AcDbEntity
  8
0
  6
Continuous
 62
     7
100
AcDbLine
 10
44.99999999922032
 20
219.3393386840279
 30
0.0
 11
44.99999999922032
 21
221.3393386840279
 31
0.0
  0
LINE
  5
14E
330
69
100
AcDbEntity
  8
0
  6
Continuous
 62
     7
100
AcDbLine
 10
46.19999999921964
 20
220.3393386840278
 30
0.0
 11
48.19999999921964
 21
220.3393386840278
 31
0.0
  0
LINE
  5
14F
330
69
100
AcDbEntity
  8
0
  6
Continuous
 62
     7
100
AcDbLine
 10
44.99999999922032
 20
219.3393386840279
 30
0.0
 11
46.07999999922036
 21
219.3393386840279
 31
0.0
  0
LINE
  5
150
330
69
100
AcDbEntity
  8
0
  6
Continuous
 62
     7
100
AcDbLine
 10
46.19999999921964
 20
220.3393386840278
 30
0.0
 11
45.99999999922036
 21
220.3393386840279
 31
0.0
  0
LINE
  5
151
330
69
100
AcDbEntity
  8
0
  6
Continuous
 62
     7
100
AcDbLine
 10
45.19999999922031
 20
221.5393386840279
 30
0.0
 11
78.99999999922032
 21
221.5393386840279
 31
0.0
  0
LINE
  5
152
330
69
100
AcDbEntity
  8
0
  6
Continuous
 62
     7
100
AcDbLine
 10
49.54999999922048
 20
210.5393386840279
 30
0.0
 11
49.34999999922048
 21
210.3393386840279
 31
0.0
  0
LINE
  5
153
330
69
100
AcDbEntity
  8
0
  6
Continuous
 62
     7
100
AcDbLine
 10
49.34999999922048
 20
210.3393386840279
 30
0.0
 11
48.34999999922047
 21
210.3393386840279
 31
0.0
  0
LINE
  5
154
330
69
100
AcDbEntity
  8
0
  6
Continuous
 62
     7
100
AcDbLine
 10
48.34999999922047
 20
210.3393386840279
 30
0.0
 11
48.34999999922047
 21
220.3393386840279
 31
0.0
  0
LINE
  5
155
330
69
100
AcDbEntity
  8
0
  6
Continuous
 62
     7
100
AcDbLine
 10
48.34999999922047
 20
220.3393386840279
 30
0.0
 11
48.19999999921964
 21
220.3393386840278
 31
0.0
  0
LINE
  5
156
330
69
100
AcDbEntity
  8
0
  6
Continuous
 62
     7
100
AcDbLine
 10
49.54999999922047
 20
220.3393386840279
 30
0.0
 11
49.54999999922048
 21
210.5393386840279
 31
0.0
  0
ENDBLK
  5
6B
330
69
100
AcDbEntity
  8
0
100
AcDbBlockEnd
  0
BLOCK
  5
70
330
6C
100
AcDbEntity
  8
0
100
AcDbBlockBegin
  2
SlidePal_L_34mm__10
 70
     0
 10
44.99999999922032
 20
183.3393386840278
 30
0.0
  3
SlidePal_L_34mm__10
  1

  0
INSERT
  5
6D
330
6C
100
AcDbEntity
  8
0
100
AcDbBlockReference
  2
grundkoerper__6
 10
46.19999999921964
 20
183.3393386840278
 30
0.0
  0
INSERT
  5
6E
330
6C
100
AcDbEntity
  8
0
100
AcDbBlockReference
  2
classic_contact_matt_1__8
 10
53.19999999921942
 20
189.0393386840259
 30
0.0
  0
INSERT
  5
6F
330
6C
100
AcDbEntity
  8
0
100
AcDbBlockReference
  2
SAW34_Rev01_bauteil__ausgeklinkt__9
 10
44.99999999922032
 20
210.3393386840279
 30
0.0
  0
ENDBLK
  5
71
330
6C
100
AcDbEntity
  8
0
100
AcDbBlockEnd
  0
BLOCK
  5
74
330
72
100
AcDbEntity
  8
0
100
AcDbBlockBegin
  2
Std_SlidePal_U34
 70
     0
 10
76.19999999999999
 20
196.0
 30
0.0
  3
Std_SlidePal_U34
  1

  0
INSERT
  5
73
330
72
100
AcDbEntity
  8
0
100
AcDbBlockReference
  2
SlidePal_L_34mm__10
 10
44.99999999922032
 20
183.3393386840278
 30
0.0
  0
MTEXT
  5
157
330
72
100
AcDbEntity
  8
1
 62
     7
100
AcDbMText
 10
84.94137582182903
 20
200.2393386840259
 30
0.0
 40
3.5
 41
0.0
 71
     2
 72
     1
  1
SlidePal U34
  7
CONVERTER_11
 73
     1
 44
1.32052821128451
  0
DIMENSION
  5
163
330
72
100
AcDbEntity
  8
1
100
AcDbDimension
  2
*D31
 10
46.19999999921966
 20
180.6551221670071
 30
0.0
 11
111.6999999992197
 21
182.9051221670071
 31
0.0
 70
    33
  1
<>
 71
     5
 42
-1.0
 53
0.00013888888889
  3
ME10_DIM_14
100
AcDbAlignedDimension
 13
106.1999999992196
 23
183.3393386840287
 33
0.0
 14
46.19999999921964
 24
183.3393386840278
 34
0.0
  0
DIMENSION
  5
16E
330
72
100
AcDbEntity
  8
1
100
AcDbDimension
  2
*D32
 10
48.19999999921964
 20
213.838432284236
 30
0.0
 11
63.59999999921998
 21
216.088432284236
 31
0.0
 70
    32
  1
30.5
 71
     5
 42
-1.0
 53
0.00013888888889
  3
ME10_DIM_15
100
AcDbAlignedDimension
 13
78.99999999922032
 23
220.3393386840279
 33
0.0
 14
48.19999999921964
 24
220.3393386840278
 34
0.0
100
AcDbRotatedDimension
  0
DIMENSION
  5
179
330
72
100
AcDbEntity
  8
1
100
AcDbDimension
  2
*D33
 10
44.99999999922032
 20
228.804977909274
 30
0.0
 11
61.99999999922032
 21
231.054977909274
 31
0.0
 70
    32
  1
<>
 71
     5
 42
-1.0
 53
0.00013888888889
  3
ME10_DIM_16
100
AcDbAlignedDimension
 13
78.99999999922032
 23
221.5393386840279
 33
0.0
 14
44.99999999922032
 24
221.3393386840279
 34
0.0
100
AcDbRotatedDimension
  0
DIMENSION
  5
184
330
72
100
AcDbEntity
  8
1
100
AcDbDimension
  2
*D34
 10
37.9787615974372
 20
221.5393386840279
 30
0.0
 11
35.7287615974372
 21
202.4393386840278
 31
0.0
 70
    32
  1
<>
 71
     5
 42
-1.0
 53
90.0
  3
ME10_DIM_17
100
AcDbAlignedDimension
 13
46.19999999921964
 23
183.3393386840278
 33
0.0
 14
45.19999999922031
 24
221.5393386840279
 34
0.0
 50
90.0
100
AcDbRotatedDimension
  0
ENDBLK
  5
75
330
72
100
AcDbEntity
  8
0
100
AcDbBlockEnd
  0
BLOCK
  5
77
330
76
100
AcDbEntity
  8
0
100
AcDbBlockBegin
  2
classic_matt_außen__11
 70
     0
 10
52.99999999921943
 20
73.93933868402578
 30
0.0
  3
classic_matt_außen__11
  1

  0
LINE
  5
185
330
76
100
AcDbEntity
  8
0
  6
Continuous
 62
     7
100
AcDbLine
 10
52.99999999921943
 20
73.93933868402578
 30
0.0
 11
184.9999999992303
 21
73.9393386840258
 31
0.0
  0
LINE
  5
186
330
76
100
AcDbEntity
  8
0
  6
Continuous
 62
     7
100
AcDbLine
 10
184.9999999992303
 20
73.9393386840258
 30
0.0
 11
184.9999999992303
 21
93.9393386840259
 31
0.0
  0
LINE
  5
187
330
76
100
AcDbEntity
  8
0
  6
Continuous
 62
     7
100
AcDbLine
 10
52.99999999921943
 20
93.93933868402588
 30
0.0
 11
52.99999999921943
 21
73.93933868402578
 31
0.0
  0
LINE
  5
188
330
76
100
AcDbEntity
  8
0
  6
Continuous
 62
     7
100
AcDbLine
 10
184.9999999992303
 20
93.9393386840259
 30
0.0
 11
52.99999999921943
 21
93.93933868402588
 31
0.0
  0
ENDBLK
  5
78
330
76
100
AcDbEntity
  8
0
100
AcDbBlockEnd
  0
BLOCK
  5
7B
330
79
100
AcDbEntity
  8
0
100
AcDbBlockBegin
  2
classic_contact_matt_1__12
 70
     0
 10
52.99999999921943
 20
73.93933868402578
 30
0.0
  3
classic_contact_matt_1__12
  1

  0
INSERT
  5
7A
330
79
100
AcDbEntity
  8
0
100
AcDbBlockReference
  2
classic_matt_außen__11
 10
52.99999999921943
 20
73.93933868402578
 30
0.0
  0
ENDBLK
  5
7C
330
79
100
AcDbEntity
  8
0
100
AcDbBlockEnd
  0
BLOCK
  5
7E
330
7D
100
AcDbEntity
  8
0
100
AcDbBlockBegin
  2
grundkoerper__13
 70
     0
 10
45.9999999992196
 20
68.23933868402763
 30
0.0
  3
grundkoerper__13
  1

  0
LINE
  5
189
330
7D
100
AcDbEntity
  8
0
  6
Continuous
 62
     7
100
AcDbLine
 10
70.7499999992196
 20
69.68933868402846
 30
0.0
 11
83.2499999992196
 21
69.68933868402846
 31
0.0
  0
LINE
  5
18A
330
7D
100
AcDbEntity
  8
0
  6
Continuous
 62
     7
100
AcDbLine
 10
83.2499999992196
 20
72.43933868402763
 30
0.0
 11
83.2499999992196
 21
69.68933868402846
 31
0.0
  0
LINE
  5
18B
330
7D
100
AcDbEntity
  8
0
  6
Continuous
 62
     7
100
AcDbLine
 10
84.4999999992196
 20
69.68933868402846
 30
0.0
 11
84.4999999992196
 21
72.43933868402763
 31
0.0
  0
LINE
  5
18C
330
7D
100
AcDbEntity
  8
0
  6
Continuous
 62
     7
100
AcDbLine
 10
88.09999999922002
 20
72.43933868402772
 30
0.0
 11
88.09999999922002
 21
69.68933868402846
 31
0.0
  0
LINE
  5
18D
330
7D
100
AcDbEntity
  8
0
  6
Continuous
 62
     7
100
AcDbLine
 10
90.54999999922012
 20
72.43933868402773
 30
0.0
 11
90.54999999922012
 21
71.43933868402775
 31
0.0
  0
LINE
  5
18E
330
7D
100
AcDbEntity
  8
0
  6
Continuous
 62
     7
100
AcDbLine
 10
90.54999999922012
 20
71.43933868402775
 30
0.0
 11
89.54999999922012
 21
71.43933868402775
 31
0.0
  0
LINE
  5
18F
330
7D
100
AcDbEntity
  8
0
  6
Continuous
 62
     7
100
AcDbLine
 10
104.5499999992197
 20
72.43933868402767
 30
0.0
 11
105.9999999992196
 21
72.43933868402766
 31
0.0
  0
LINE
  5
190
330
7D
100
AcDbEntity
  8
0
  6
Continuous
 62
     7
100
AcDbLine
 10
104.5499999992197
 20
69.68933868402846
 30
0.0
 11
104.5499999992197
 21
72.43933868402767
 31
0.0
  0
LINE
  5
191
330
7D
100
AcDbEntity
  8
0
  6
Continuous
 62
     7
100
AcDbLine
 10
105.9999999992196
 20
68.23933868402845
 30
0.0
 11
105.9999999992196
 21
72.43933868402766
 31
0.0
  0
LINE
  5
192
330
7D
100
AcDbEntity
  8
0
  6
Continuous
 62
     7
100
AcDbLine
 10
98.49999999922
 20
72.43933868402767
 30
0.0
 11
98.49999999922
 21
69.68933868402846
 31
0.0
  0
LINE
  5
193
330
7D
100
AcDbEntity
  8
0
  6
Continuous
 62
     7
100
AcDbLine
 10
84.4999999992196
 20
72.43933868402763
 30
0.0
 11
83.2499999992196
 21
72.43933868402763
 31
0.0
  0
LINE
  5
194
330
7D
100
AcDbEntity
  8
0
  6
Continuous
 62
     7
100
AcDbLine
 10
88.09999999922002
 20
72.43933868402772
 30
0.0
 11
90.54999999922012
 21
72.43933868402773
 31
0.0
  0
LINE
  5
195
330
7D
100
AcDbEntity
  8
0
  6
Continuous
 62
     7
100
AcDbLine
 10
96.04999999922012
 20
72.43933868402766
 30
0.0
 11
98.49999999922
 21
72.43933868402767
 31
0.0
  0
LINE
  5
196
330
7D
100
AcDbEntity
  8
0
  6
Continuous
 62
     7
100
AcDbLine
 10
96.04999999922012
 20
72.43933868402766
 30
0.0
 11
96.04999999922012
 21
71.43933868402766
 31
0.0
  0
LINE
  5
197
330
7D
100
AcDbEntity
  8
0
  6
Continuous
 62
     7
100
AcDbLine
 10
89.54999999922012
 20
69.68933868402846
 30
0.0
 11
97.04999999922012
 21
69.68933868402846
 31
0.0
  0
LINE
  5
198
330
7D
100
AcDbEntity
  8
0
  6
Continuous
 62
     7
100
AcDbLine
 10
98.49999999922
 20
69.68933868402846
 30
0.0
 11
104.5499999992197
 21
69.68933868402846
 31
0.0
  0
LINE
  5
199
330
7D
100
AcDbEntity
  8
0
  6
Continuous
 62
     7
100
AcDbLine
 10
84.4999999992196
 20
69.68933868402846
 30
0.0
 11
88.09999999922002
 21
69.68933868402846
 31
0.0
  0
LINE
  5
19A
330
7D
100
AcDbEntity
  8
0
  6
Continuous
 62
     7
100
AcDbLine
 10
89.54999999922012
 20
71.43933868402775
 30
0.0
 11
89.54999999922012
 21
69.68933868402846
 31
0.0
  0
LINE
  5
19B
330
7D
100
AcDbEntity
  8
0
  6
Continuous
 62
     7
100
AcDbLine
 10
97.04999999922012
 20
71.43933868402766
 30
0.0
 11
96.04999999922012
 21
71.43933868402766
 31
0.0
  0
LINE
  5
19C
330
7D
100
AcDbEntity
  8
0
  6
Continuous
 62
     7
100
AcDbLine
 10
97.04999999922012
 20
69.68933868402846
 30
0.0
 11
97.04999999922012
 21
71.43933868402766
 31
0.0
  0
LINE
  5
19D
330
7D
100
AcDbEntity
  8
0
  6
Continuous
 62
     7
100
AcDbLine
 10
65.89999999921969
 20
69.68933868402846
 30
0.0
 11
69.4999999992196
 21
69.68933868402846
 31
0.0
  0
LINE
  5
19E
330
7D
100
AcDbEntity
  8
0
  6
Continuous
 62
     7
100
AcDbLine
 10
57.9499999992197
 20
72.43933868402779
 30
0.0
 11
57.9499999992197
 21
71.4393386840278
 31
0.0
  0
LINE
  5
19F
330
7D
100
AcDbEntity
  8
0
  6
Continuous
 62
     7
100
AcDbLine
 10
70.7499999992196
 20
72.43933868402766
 30
0.0
 11
69.4999999992196
 21
72.43933868402766
 31
0.0
  0
LINE
  5
1A0
330
7D
100
AcDbEntity
  8
0
  6
Continuous
 62
     7
100
AcDbLine
 10
69.4999999992196
 20
72.43933868402766
 30
0.0
 11
69.4999999992196
 21
69.68933868402846
 31
0.0
  0
LINE
  5
1A1
330
7D
100
AcDbEntity
  8
0
  6
Continuous
 62
     7
100
AcDbLine
 10
70.7499999992196
 20
69.68933868402846
 30
0.0
 11
70.7499999992196
 21
72.43933868402766
 31
0.0
  0
LINE
  5
1A2
330
7D
100
AcDbEntity
  8
0
  6
Continuous
 62
     7
100
AcDbLine
 10
64.4499999992197
 20
71.43933868402783
 30
0.0
 11
63.4499999992197
 21
71.43933868402783
 31
0.0
  0
LINE
  5
1A3
330
7D
100
AcDbEntity
  8
0
  6
Continuous
 62
     7
100
AcDbLine
 10
64.4499999992197
 20
69.68933868402846
 30
0.0
 11
64.4499999992197
 21
71.43933868402783
 31
0.0
  0
LINE
  5
1A4
330
7D
100
AcDbEntity
  8
0
  6
Continuous
 62
     7
100
AcDbLine
 10
47.9999999992196
 20
72.43933868402833
 30
0.0
 11
49.44999999921959
 21
72.43933868402833
 31
0.0
  0
LINE
  5
1A5
330
7D
100
AcDbEntity
  8
0
  6
Continuous
 62
     7
100
AcDbLine
 10
47.9999999992196
 20
72.43933868402833
 30
0.0
 11
47.9999999992196
 21
105.2393386840276
 31
0.0
  0
LINE
  5
1A6
330
7D
100
AcDbEntity
  8
0
  6
Continuous
 62
     7
100
AcDbLine
 10
45.9999999992196
 20
68.23933868402763
 30
0.0
 11
105.9999999992196
 21
68.23933868402845
 31
0.0
  0
LINE
  5
1A7
330
7D
100
AcDbEntity
  8
0
  6
Continuous
 62
     7
100
AcDbLine
 10
49.44999999921959
 20
69.68933868402846
 30
0.0
 11
55.4999999992196
 21
69.68933868402846
 31
0.0
  0
LINE
  5
1A8
330
7D
100
AcDbEntity
  8
0
  6
Continuous
 62
     7
100
AcDbLine
 10
63.4499999992197
 20
72.43933868402783
 30
0.0
 11
65.89999999921969
 21
72.43933868402785
 31
0.0
  0
LINE
  5
1A9
330
7D
100
AcDbEntity
  8
0
  6
Continuous
 62
     7
100
AcDbLine
 10
49.44999999921959
 20
72.43933868402833
 30
0.0
 11
49.44999999921959
 21
69.68933868402846
 31
0.0
  0
LINE
  5
1AA
330
7D
100
AcDbEntity
  8
0
  6
Continuous
 62
     7
100
AcDbLine
 10
55.4999999992196
 20
72.43933868402777
 30
0.0
 11
57.9499999992197
 21
72.43933868402779
 31
0.0
  0
LINE
  5
1AB
330
7D
100
AcDbEntity
  8
0
  6
Continuous
 62
     7
100
AcDbLine
 10
45.9999999992196
 20
105.2393386840276
 30
0.0
 11
45.9999999992196
 21
68.23933868402763
 31
0.0
  0
LINE
  5
1AC
330
7D
100
AcDbEntity
  8
0
  6
Continuous
 62
     7
100
AcDbLine
 10
65.89999999921969
 20
72.43933868402785
 30
0.0
 11
65.89999999921969
 21
69.68933868402846
 31
0.0
  0
LINE
  5
1AD
330
7D
100
AcDbEntity
  8
0
  6
Continuous
 62
     7
100
AcDbLine
 10
56.9499999992197
 20
71.4393386840278
 30
0.0
 11
56.9499999992197
 21
69.68933868402846
 31
0.0
  0
LINE
  5
1AE
330
7D
100
AcDbEntity
  8
0
  6
Continuous
 62
     7
100
AcDbLine
 10
57.9499999992197
 20
71.4393386840278
 30
0.0
 11
56.9499999992197
 21
71.4393386840278
 31
0.0
  0
LINE
  5
1AF
330
7D
100
AcDbEntity
  8
0
  6
Continuous
 62
     7
100
AcDbLine
 10
56.9499999992197
 20
69.68933868402846
 30
0.0
 11
64.4499999992197
 21
69.68933868402846
 31
0.0
  0
LINE
  5
1B0
330
7D
100
AcDbEntity
  8
0
  6
Continuous
 62
     7
100
AcDbLine
 10
63.4499999992197
 20
72.43933868402783
 30
0.0
 11
63.4499999992197
 21
71.43933868402783
 31
0.0
  0
LINE
  5
1B1
330
7D
100
AcDbEntity
  8
0
  6
Continuous
 62
     7
100
AcDbLine
 10
55.4999999992196
 20
69.68933868402846
 30
0.0
 11
55.4999999992196
 21
72.43933868402777
 31
0.0
  0
LINE
  5
1B2
330
7D
100
AcDbEntity
  8
0
  6
Continuous
 62
     7
100
AcDbLine
 10
45.9999999992196
 20
105.2393386840276
 30
0.0
 11
47.9999999992196
 21
105.2393386840276
 31
0.0
  0
ENDBLK
  5
7F
330
7D
100
AcDbEntity
  8
0
100
AcDbBlockEnd
  0
BLOCK
  5
81
330
80
100
AcDbEntity
  8
0
100
AcDbBlockBegin
  2
SAW45_Rev01_bauteil__ausgeklinkt__14
 70
     0
 10
44.79999999922029
 20
95.23933868402764
 30
0.0
  3
SAW45_Rev01_bauteil__ausgeklinkt__14
  1

  0
LINE
  5
1B3
330
80
100
AcDbEntity
  8
0
  6
Continuous
 62
     7
100
AcDbLine
 10
45.7999999992204
 20
105.2393386840276
 30
0.0
 11
45.87999999922039
 21
104.2393386840276
 31
0.0
  0
LINE
  5
1B4
330
80
100
AcDbEntity
  8
0
  6
Continuous
 62
     7
100
AcDbLine
 10
49.34999999922047
 20
95.43933868402763
 30
0.0
 11
49.14999999922048
 21
95.23933868402764
 31
0.0
  0
LINE
  5
1B5
330
80
100
AcDbEntity
  8
0
  6
Continuous
 62
     7
100
AcDbLine
 10
49.14999999922048
 20
95.23933868402764
 30
0.0
 11
48.14999999922048
 21
95.23933868402764
 31
0.0
  0
LINE
  5
1B6
330
80
100
AcDbEntity
  8
0
  6
Continuous
 62
     7
100
AcDbLine
 10
48.14999999922048
 20
95.23933868402764
 30
0.0
 11
48.14999999922048
 21
105.2393386840276
 31
0.0
  0
LINE
  5
1B7
330
80
100
AcDbEntity
  8
0
  6
Continuous
 62
     7
100
AcDbLine
 10
44.99999999922028
 20
106.4393386840277
 30
0.0
 11
44.79999999922029
 21
106.2393386840276
 31
0.0
  0
LINE
  5
1B8
330
80
100
AcDbEntity
  8
0
  6
Continuous
 62
     7
100
AcDbLine
 10
44.79999999922029
 20
104.2393386840276
 30
0.0
 11
44.79999999922029
 21
106.2393386840276
 31
0.0
  0
LINE
  5
1B9
330
80
100
AcDbEntity
  8
0
  6
Continuous
 62
     7
100
AcDbLine
 10
44.79999999922029
 20
104.2393386840276
 30
0.0
 11
45.87999999922039
 21
104.2393386840276
 31
0.0
  0
LINE
  5
1BA
330
80
100
AcDbEntity
  8
0
  6
Continuous
 62
     7
100
AcDbLine
 10
44.99999999922028
 20
106.4393386840277
 30
0.0
 11
89.79999999922029
 21
106.4393386840277
 31
0.0
  0
LINE
  5
1BB
330
80
100
AcDbEntity
  8
0
  6
Continuous
 62
     7
100
AcDbLine
 10
89.79999999922029
 20
106.4393386840277
 30
0.0
 11
89.79999999922029
 21
105.2393386840277
 31
0.0
  0
LINE
  5
1BC
330
80
100
AcDbEntity
  8
0
  6
Continuous
 62
     7
100
AcDbLine
 10
89.79999999922029
 20
105.2393386840277
 30
0.0
 11
49.34999999922047
 21
105.2393386840276
 31
0.0
  0
LINE
  5
1BD
330
80
100
AcDbEntity
  8
0
  6
Continuous
 62
     7
100
AcDbLine
 10
49.34999999922047
 20
105.2393386840276
 30
0.0
 11
49.34999999922047
 21
95.43933868402763
 31
0.0
  0
LINE
  5
1BE
330
80
100
AcDbEntity
  8
0
  6
Continuous
 62
     7
100
AcDbLine
 10
48.14999999922048
 20
105.2393386840276
 30
0.0
 11
47.9999999992196
 21
105.2393386840276
 31
0.0
  0
LINE
  5
1BF
330
80
100
AcDbEntity
  8
0
  6
Continuous
 62
     7
100
AcDbLine
 10
45.9999999992196
 20
105.2393386840276
 30
0.0
 11
47.9999999992196
 21
105.2393386840276
 31
0.0
  0
LINE
  5
1C0
330
80
100
AcDbEntity
  8
0
  6
Continuous
 62
     7
100
AcDbLine
 10
45.9999999992196
 20
105.2393386840276
 30
0.0
 11
45.7999999992204
 21
105.2393386840276
 31
0.0
  0
ENDBLK
  5
82
330
80
100
AcDbEntity
  8
0
100
AcDbBlockEnd
  0
BLOCK
  5
87
330
83
100
AcDbEntity
  8
0
100
AcDbBlockBegin
  2
SlidePal_L_45mm__15
 70
     0
 10
44.79999999922029
 20
68.23933868402763
 30
0.0
  3
SlidePal_L_45mm__15
  1

  0
INSERT
  5
84
330
83
100
AcDbEntity
  8
0
100
AcDbBlockReference
  2
classic_contact_matt_1__12
 10
52.99999999921943
 20
73.93933868402578
 30
0.0
  0
INSERT
  5
85
330
83
100
AcDbEntity
  8
0
100
AcDbBlockReference
  2
grundkoerper__13
 10
45.9999999992196
 20
68.23933868402763
 30
0.0
  0
INSERT
  5
86
330
83
100
AcDbEntity
  8
0
100
AcDbBlockReference
  2
SAW45_Rev01_bauteil__ausgeklinkt__14
 10
44.79999999922029
 20
95.23933868402764
 30
0.0
  0
ENDBLK
  5
88
330
83
100
AcDbEntity
  8
0
100
AcDbBlockEnd
  0
BLOCK
  5
8B
330
89
100
AcDbEntity
  8
0
100
AcDbBlockBegin
  2
Std_SlidePal_U45
 70
     0
 10
426.0
 20
80.9
 30
0.0
  3
Std_SlidePal_U45
  1

  0
INSERT
  5
8A
330
89
100
AcDbEntity
  8
0
100
AcDbBlockReference
  2
SlidePal_L_45mm__15
 10
44.79999999922029
 20
68.23933868402763
 30
0.0
  0
MTEXT
  5
1C1
330
89
100
AcDbEntity
  8
1
 62
     7
100
AcDbMText
 10
84.941375821829
 20
85.9393386840259
 30
0.0
 40
3.5
 41
0.0
 71
     2
 72
     1
  1
SlidePal U45
  7
CONVERTER_11
 73
     1
 44
1.32052821128451
  0
DIMENSION
  5
1CC
330
89
100
AcDbEntity
  8
1
100
AcDbDimension
  2
*D35
 10
37.77876159743715
 20
68.23933868402762
 30
0.0
 11
35.52876159743715
 21
87.33933868402764
 31
0.0
 70
    32
  1
<>
 71
     5
 42
-1.0
 53
90.0
  3
ME10_DIM_18
100
AcDbAlignedDimension
 13
44.99999999922028
 23
106.4393386840277
 33
0.0
 14
45.9999999992196
 24
68.23933868402763
 34
0.0
 50
90.0
100
AcDbRotatedDimension
  0
DIMENSION
  5
1D7
330
89
100
AcDbEntity
  8
1
100
AcDbDimension
  2
*D36
 10
44.79999999922029
 20
115.3237606021818
 30
0.0
 11
67.29999999922029
 21
117.5737606021818
 31
0.0
 70
    32
  1
<>
 71
     5
 42
-1.0
 53
0.00013888888889
  3
ME10_DIM_19
100
AcDbAlignedDimension
 13
89.79999999922029
 23
106.4393386840277
 33
0.0
 14
44.79999999922029
 24
106.2393386840276
 34
0.0
100
AcDbRotatedDimension
  0
DIMENSION
  5
1E2
330
89
100
AcDbEntity
  8
1
100
AcDbDimension
  2
*D37
 10
47.9999999992196
 20
98.6314413394118
 30
0.0
 11
68.89999999921997
 21
100.8814413394118
 31
0.0
 70
    33
  1
41.5
 71
     5
 42
-1.0
 53
0.00013888888889
  3
ME10_DIM_20
100
AcDbAlignedDimension
 13
89.79999999922029
 23
105.2393386840277
 33
0.0
 14
47.9999999992196
 24
105.2393386840276
 34
0.0
  0
DIMENSION
  5
1EE
330
89
100
AcDbEntity
  8
1
100
AcDbDimension
  2
*D38
 10
45.99999999921958
 20
65.29067772256153
 30
0.0
 11
111.7999999992196
 21
67.54067772256153
 31
0.0
 70
    33
  1
<>
 71
     5
 42
-1.0
 53
0.00013888888889
  3
ME10_DIM_21
100
AcDbAlignedDimension
 13
105.9999999992196
 23
68.23933868402845
 33
0.0
 14
45.9999999992196
 24
68.23933868402763
 34
0.0
  0
ENDBLK
  5
8C
330
89
100
AcDbEntity
  8
0
100
AcDbBlockEnd
  0
BLOCK
  5
8E
330
8D
100
AcDbEntity
  8
0
100
AcDbBlockBegin
  2
classic_matt_außen__16
 70
     0
 10
52.69999999921947
 20
133.6393386840257
 30
0.0
  3
classic_matt_außen__16
  1

  0
LINE
  5
1EF
330
8D
100
AcDbEntity
  8
0
  6
Continuous
 62
     7
100
AcDbLine
 10
93.65172614814384
 20
133.6393386840261
 30
0.0
 11
184.6999999992305
 21
133.6393386840257
 31
0.0
  0
LINE
  5
1F0
330
8D
100
AcDbEntity
  8
0
  6
Continuous
 62
     7
100
AcDbLine
 10
52.69999999921947
 20
133.6393386840257
 30
0.0
 11
92.18293664939654
 21
133.6393386840261
 31
0.0
  0
LINE
  5
1F1
330
8D
100
AcDbEntity
  8
0
  6
Continuous
 62
     7
100
AcDbLine
 10
92.18293664939654
 20
133.6393386840261
 30
0.0
 11
93.65172614814384
 21
133.6393386840261
 31
0.0
  0
LINE
  5
1F2
330
8D
100
AcDbEntity
  8
0
  6
Continuous
 62
     7
100
AcDbLine
 10
184.6999999992305
 20
133.6393386840257
 30
0.0
 11
184.6999999992305
 21
153.6393386840258
 31
0.0
  0
LINE
  5
1F3
330
8D
100
AcDbEntity
  8
0
  6
Continuous
 62
     7
100
AcDbLine
 10
184.6999999992305
 20
153.6393386840258
 30
0.0
 11
52.69999999921947
 21
153.6393386840258
 31
0.0
  0
LINE
  5
1F4
330
8D
100
AcDbEntity
  8
0
  6
Continuous
 62
     7
100
AcDbLine
 10
52.69999999921947
 20
153.6393386840258
 30
0.0
 11
52.69999999921947
 21
133.6393386840257
 31
0.0
  0
ENDBLK
  5
8F
330
8D
100
AcDbEntity
  8
0
100
AcDbBlockEnd
  0
BLOCK
  5
92
330
90
100
AcDbEntity
  8
0
100
AcDbBlockBegin
  2
classic_contact_matt_1__17
 70
     0
 10
52.69999999921947
 20
133.6393386840257
 30
0.0
  3
classic_contact_matt_1__17
  1

  0
INSERT
  5
91
330
90
100
AcDbEntity
  8
0
100
AcDbBlockReference
  2
classic_matt_außen__16
 10
52.69999999921947
 20
133.6393386840257
 30
0.0
  0
ENDBLK
  5
93
330
90
100
AcDbEntity
  8
0
100
AcDbBlockEnd
  0
BLOCK
  5
95
330
94
100
AcDbEntity
  8
0
100
AcDbBlockBegin
  2
SAW45_Rev01_bauteil__ausgeklinkt__18
 70
     0
 10
44.49999999922039
 20
154.9393386840276
 30
0.0
  3
SAW45_Rev01_bauteil__ausgeklinkt__18
  1

  0
LINE
  5
1F5
330
94
100
AcDbEntity
  8
0
  6
Continuous
 62
     7
100
AcDbLine
 10
49.04999999922052
 20
155.1393386840276
 30
0.0
 11
48.84999999922053
 21
154.9393386840276
 31
0.0
  0
LINE
  5
1F6
330
94
100
AcDbEntity
  8
0
  6
Continuous
 62
     7
100
AcDbLine
 10
48.84999999922053
 20
154.9393386840276
 30
0.0
 11
47.84999999922053
 21
154.9393386840276
 31
0.0
  0
LINE
  5
1F7
330
94
100
AcDbEntity
  8
0
  6
Continuous
 62
     7
100
AcDbLine
 10
47.84999999922053
 20
154.9393386840276
 30
0.0
 11
47.84999999922053
 21
164.9393386840276
 31
0.0
  0
LINE
  5
1F8
330
94
100
AcDbEntity
  8
0
  6
Continuous
 62
     7
100
AcDbLine
 10
45.49999999922045
 20
164.9393386840276
 30
0.0
 11
45.57999999922043
 21
163.9393386840276
 31
0.0
  0
LINE
  5
1F9
330
94
100
AcDbEntity
  8
0
  6
Continuous
 62
     7
100
AcDbLine
 10
44.49999999922039
 20
163.9393386840276
 30
0.0
 11
44.49999999922039
 21
165.9393386840276
 31
0.0
  0
LINE
  5
1FA
330
94
100
AcDbEntity
  8
0
  6
Continuous
 62
     7
100
AcDbLine
 10
44.49999999922039
 20
163.9393386840276
 30
0.0
 11
45.57999999922043
 21
163.9393386840276
 31
0.0
  0
LINE
  5
1FB
330
94
100
AcDbEntity
  8
0
  6
Continuous
 62
     7
100
AcDbLine
 10
44.69999999922038
 20
166.1393386840276
 30
0.0
 11
44.49999999922039
 21
165.9393386840276
 31
0.0
  0
LINE
  5
1FC
330
94
100
AcDbEntity
  8
0
  6
Continuous
 62
     7
100
AcDbLine
 10
44.69999999922038
 20
166.1393386840276
 30
0.0
 11
84.49999999922044
 21
166.1393386840276
 31
0.0
  0
LINE
  5
1FD
330
94
100
AcDbEntity
  8
0
  6
Continuous
 62
     7
100
AcDbLine
 10
84.49999999922044
 20
166.1393386840276
 30
0.0
 11
84.49999999922044
 21
164.9393386840276
 31
0.0
  0
LINE
  5
1FE
330
94
100
AcDbEntity
  8
0
  6
Continuous
 62
     7
100
AcDbLine
 10
84.49999999922044
 20
164.9393386840276
 30
0.0
 11
49.04999999922052
 21
164.9393386840276
 31
0.0
  0
LINE
  5
1FF
330
94
100
AcDbEntity
  8
0
  6
Continuous
 62
     7
100
AcDbLine
 10
49.04999999922052
 20
164.9393386840276
 30
0.0
 11
49.04999999922052
 21
155.1393386840276
 31
0.0
  0
LINE
  5
200
330
94
100
AcDbEntity
  8
0
  6
Continuous
 62
     7
100
AcDbLine
 10
47.84999999922053
 20
164.9393386840276
 30
0.0
 11
47.6999999992197
 21
164.9393386840275
 31
0.0
  0
LINE
  5
201
330
94
100
AcDbEntity
  8
0
  6
Continuous
 62
     7
100
AcDbLine
 10
45.6999999992197
 20
164.9393386840275
 30
0.0
 11
47.6999999992197
 21
164.9393386840275
 31
0.0
  0
LINE
  5
202
330
94
100
AcDbEntity
  8
0
  6
Continuous
 62
     7
100
AcDbLine
 10
45.6999999992197
 20
164.9393386840275
 30
0.0
 11
45.49999999922045
 21
164.9393386840276
 31
0.0
  0
ENDBLK
  5
96
330
94
100
AcDbEntity
  8
0
100
AcDbBlockEnd
  0
BLOCK
  5
98
330
97
100
AcDbEntity
  8
0
100
AcDbBlockBegin
  2
grundkoerper__19
 70
     0
 10
45.6999999992197
 20
127.9393386840276
 30
0.0
  3
grundkoerper__19
  1

  0
LINE
  5
203
330
97
100
AcDbEntity
  8
0
  6
Continuous
 62
     7
100
AcDbLine
 10
87.79999999922003
 20
132.1393386840277
 30
0.0
 11
87.79999999922003
 21
129.3893386840284
 31
0.0
  0
LINE
  5
204
330
97
100
AcDbEntity
  8
0
  6
Continuous
 62
     7
100
AcDbLine
 10
90.24999999922014
 20
132.1393386840277
 30
0.0
 11
90.24999999922014
 21
131.1393386840277
 31
0.0
  0
LINE
  5
205
330
97
100
AcDbEntity
  8
0
  6
Continuous
 62
     7
100
AcDbLine
 10
90.24999999922014
 20
131.1393386840277
 30
0.0
 11
89.24999999922014
 21
131.1393386840277
 31
0.0
  0
LINE
  5
206
330
97
100
AcDbEntity
  8
0
  6
Continuous
 62
     7
100
AcDbLine
 10
89.24999999922044
 20
131.0137132837591
 30
0.0
 11
89.24999999922044
 21
129.513713283759
 31
0.0
  0
LINE
  5
207
330
97
100
AcDbEntity
  8
0
  6
Continuous
 62
     7
100
AcDbLine
 10
89.24999999922014
 20
131.1393386840277
 30
0.0
 11
89.24999999922044
 21
131.0137132837591
 31
0.0
  0
LINE
  5
208
330
97
100
AcDbEntity
  8
0
  6
Continuous
 62
     7
100
AcDbLine
 10
89.24999999922014
 20
129.3893386840284
 30
0.0
 11
89.36251164697323
 21
129.3893386840284
 31
0.0
  0
LINE
  5
209
330
97
100
AcDbEntity
  8
0
  6
Continuous
 62
     7
100
AcDbLine
 10
84.19999999921963
 20
129.3893386840284
 30
0.0
 11
84.19999999921963
 21
132.1393386840276
 31
0.0
  0
LINE
  5
20A
330
97
100
AcDbEntity
  8
0
  6
Continuous
 62
     7
100
AcDbLine
 10
82.94999999921963
 20
132.1393386840276
 30
0.0
 11
82.94999999921963
 21
129.3893386840284
 31
0.0
  0
LINE
  5
20B
330
97
100
AcDbEntity
  8
0
  6
Continuous
 62
     7
100
AcDbLine
 10
104.2499999992197
 20
132.1393386840276
 30
0.0
 11
105.6999999992197
 21
132.1393386840276
 31
0.0
  0
LINE
  5
20C
330
97
100
AcDbEntity
  8
0
  6
Continuous
 62
     7
100
AcDbLine
 10
104.2499999992197
 20
129.3893386840284
 30
0.0
 11
104.2499999992197
 21
132.1393386840276
 31
0.0
  0
LINE
  5
20D
330
97
100
AcDbEntity
  8
0
  6
Continuous
 62
     7
100
AcDbLine
 10
105.6999999992197
 20
127.9393386840284
 30
0.0
 11
105.6999999992197
 21
132.1393386840276
 31
0.0
  0
LINE
  5
20E
330
97
100
AcDbEntity
  8
0
  6
Continuous
 62
     7
100
AcDbLine
 10
98.19999999922013
 20
132.1393386840276
 30
0.0
 11
98.19999999922013
 21
129.3893386840284
 31
0.0
  0
LINE
  5
20F
330
97
100
AcDbEntity
  8
0
  6
Continuous
 62
     7
100
AcDbLine
 10
84.19999999921963
 20
132.1393386840276
 30
0.0
 11
82.94999999921963
 21
132.1393386840276
 31
0.0
  0
LINE
  5
210
330
97
100
AcDbEntity
  8
0
  6
Continuous
 62
     7
100
AcDbLine
 10
87.79999999922003
 20
132.1393386840277
 30
0.0
 11
90.24999999922014
 21
132.1393386840277
 31
0.0
  0
LINE
  5
211
330
97
100
AcDbEntity
  8
0
  6
Continuous
 62
     7
100
AcDbLine
 10
95.74999999922014
 20
132.1393386840276
 30
0.0
 11
98.19999999922013
 21
132.1393386840276
 31
0.0
  0
LINE
  5
212
330
97
100
AcDbEntity
  8
0
  6
Continuous
 62
     7
100
AcDbLine
 10
70.44999999921964
 20
129.3893386840284
 30
0.0
 11
82.94999999921963
 21
129.3893386840284
 31
0.0
  0
LINE
  5
213
330
97
100
AcDbEntity
  8
0
  6
Continuous
 62
     7
100
AcDbLine
 10
96.63748835146784
 20
129.3893386840284
 30
0.0
 11
96.74999999922014
 21
129.3893386840284
 31
0.0
  0
LINE
  5
214
330
97
100
AcDbEntity
  8
0
  6
Continuous
 62
     7
100
AcDbLine
 10
98.19999999922013
 20
129.3893386840284
 30
0.0
 11
104.2499999992197
 21
129.3893386840284
 31
0.0
  0
LINE
  5
215
330
97
100
AcDbEntity
  8
0
  6
Continuous
 62
     7
100
AcDbLine
 10
84.19999999921963
 20
129.3893386840284
 30
0.0
 11
87.79999999922003
 21
129.3893386840284
 31
0.0
  0
LINE
  5
216
330
97
100
AcDbEntity
  8
0
  6
Continuous
 62
     7
100
AcDbLine
 10
65.59999999921973
 20
129.3893386840284
 30
0.0
 11
69.19999999921964
 21
129.3893386840284
 31
0.0
  0
LINE
  5
217
330
97
100
AcDbEntity
  8
0
  6
Continuous
 62
     7
100
AcDbLine
 10
57.64999999921974
 20
132.1393386840277
 30
0.0
 11
57.64999999921974
 21
131.1393386840277
 31
0.0
  0
LINE
  5
218
330
97
100
AcDbEntity
  8
0
  6
Continuous
 62
     7
100
AcDbLine
 10
70.44999999921964
 20
132.1393386840276
 30
0.0
 11
69.19999999921964
 21
132.1393386840276
 31
0.0
  0
LINE
  5
219
330
97
100
AcDbEntity
  8
0
  6
Continuous
 62
     7
100
AcDbLine
 10
69.19999999921964
 20
132.1393386840276
 30
0.0
 11
69.19999999921964
 21
129.3893386840284
 31
0.0
  0
LINE
  5
21A
330
97
100
AcDbEntity
  8
0
  6
Continuous
 62
     7
100
AcDbLine
 10
70.44999999921964
 20
129.3893386840284
 30
0.0
 11
70.44999999921964
 21
132.1393386840276
 31
0.0
  0
LINE
  5
21B
330
97
100
AcDbEntity
  8
0
  6
Continuous
 62
     7
100
AcDbLine
 10
64.14999999921974
 20
131.1393386840278
 30
0.0
 11
63.14999999921974
 21
131.1393386840278
 31
0.0
  0
LINE
  5
21C
330
97
100
AcDbEntity
  8
0
  6
Continuous
 62
     7
100
AcDbLine
 10
64.14999999921974
 20
129.3893386840284
 30
0.0
 11
64.14999999921974
 21
131.1393386840278
 31
0.0
  0
LINE
  5
21D
330
97
100
AcDbEntity
  8
0
  6
Continuous
 62
     7
100
AcDbLine
 10
96.74999999922014
 20
131.1393386840276
 30
0.0
 11
95.74999999922014
 21
131.1393386840276
 31
0.0
  0
LINE
  5
21E
330
97
100
AcDbEntity
  8
0
  6
Continuous
 62
     7
100
AcDbLine
 10
96.74999999922044
 20
129.513713283759
 30
0.0
 11
96.74999999922044
 21
131.013713283759
 31
0.0
  0
LINE
  5
21F
330
97
100
AcDbEntity
  8
0
  6
Continuous
 62
     7
100
AcDbLine
 10
96.74999999922014
 20
129.3893386840284
 30
0.0
 11
96.74999999922044
 21
129.513713283759
 31
0.0
  0
LINE
  5
220
330
97
100
AcDbEntity
  8
0
  6
Continuous
 62
     7
100
AcDbLine
 10
96.74999999922044
 20
131.013713283759
 30
0.0
 11
96.74999999922014
 21
131.1393386840276
 31
0.0
  0
LINE
  5
221
330
97
100
AcDbEntity
  8
0
  6
Continuous
 62
     7
100
AcDbLine
 10
89.24999999922044
 20
129.513713283759
 30
0.0
 11
89.24999999922014
 21
129.3893386840284
 31
0.0
  0
LINE
  5
222
330
97
100
AcDbEntity
  8
0
  6
Continuous
 62
     7
100
AcDbLine
 10
89.36251164697323
 20
129.3893386840284
 30
0.0
 11
96.63748835146784
 21
129.3893386840284
 31
0.0
  0
LINE
  5
223
330
97
100
AcDbEntity
  8
0
  6
Continuous
 62
     7
100
AcDbLine
 10
95.74999999922014
 20
132.1393386840276
 30
0.0
 11
95.74999999922014
 21
131.1393386840276
 31
0.0
  0
LINE
  5
224
330
97
100
AcDbEntity
  8
0
  6
Continuous
 62
     7
100
AcDbLine
 10
47.6999999992197
 20
132.1393386840283
 30
0.0
 11
49.14999999921969
 21
132.1393386840283
 31
0.0
  0
LINE
  5
225
330
97
100
AcDbEntity
  8
0
  6
Continuous
 62
     7
100
AcDbLine
 10
47.6999999992197
 20
132.1393386840283
 30
0.0
 11
47.6999999992197
 21
164.9393386840275
 31
0.0
  0
LINE
  5
226
330
97
100
AcDbEntity
  8
0
  6
Continuous
 62
     7
100
AcDbLine
 10
45.6999999992197
 20
127.9393386840276
 30
0.0
 11
105.6999999992197
 21
127.9393386840284
 31
0.0
  0
LINE
  5
227
330
97
100
AcDbEntity
  8
0
  6
Continuous
 62
     7
100
AcDbLine
 10
49.14999999921969
 20
129.3893386840284
 30
0.0
 11
55.1999999992197
 21
129.3893386840284
 31
0.0
  0
LINE
  5
228
330
97
100
AcDbEntity
  8
0
  6
Continuous
 62
     7
100
AcDbLine
 10
63.14999999921974
 20
132.1393386840278
 30
0.0
 11
65.59999999921973
 21
132.1393386840278
 31
0.0
  0
LINE
  5
229
330
97
100
AcDbEntity
  8
0
  6
Continuous
 62
     7
100
AcDbLine
 10
49.14999999921969
 20
132.1393386840283
 30
0.0
 11
49.14999999921969
 21
129.3893386840284
 31
0.0
  0
LINE
  5
22A
330
97
100
AcDbEntity
  8
0
  6
Continuous
 62
     7
100
AcDbLine
 10
55.1999999992197
 20
132.1393386840277
 30
0.0
 11
57.64999999921974
 21
132.1393386840277
 31
0.0
  0
LINE
  5
22B
330
97
100
AcDbEntity
  8
0
  6
Continuous
 62
     7
100
AcDbLine
 10
45.6999999992197
 20
164.9393386840275
 30
0.0
 11
45.6999999992197
 21
127.9393386840276
 31
0.0
  0
LINE
  5
22C
330
97
100
AcDbEntity
  8
0
  6
Continuous
 62
     7
100
AcDbLine
 10
45.6999999992197
 20
164.9393386840275
 30
0.0
 11
47.6999999992197
 21
164.9393386840275
 31
0.0
  0
LINE
  5
22D
330
97
100
AcDbEntity
  8
0
  6
Continuous
 62
     7
100
AcDbLine
 10
55.1999999992197
 20
129.3893386840284
 30
0.0
 11
55.1999999992197
 21
132.1393386840277
 31
0.0
  0
LINE
  5
22E
330
97
100
AcDbEntity
  8
0
  6
Continuous
 62
     7
100
AcDbLine
 10
65.59999999921973
 20
132.1393386840278
 30
0.0
 11
65.59999999921973
 21
129.3893386840284
 31
0.0
  0
LINE
  5
22F
330
97
100
AcDbEntity
  8
0
  6
Continuous
 62
     7
100
AcDbLine
 10
56.64999999921974
 20
131.1393386840277
 30
0.0
 11
56.64999999921974
 21
129.3893386840284
 31
0.0
  0
LINE
  5
230
330
97
100
AcDbEntity
  8
0
  6
Continuous
 62
     7
100
AcDbLine
 10
57.64999999921974
 20
131.1393386840277
 30
0.0
 11
56.64999999921974
 21
131.1393386840277
 31
0.0
  0
LINE
  5
231
330
97
100
AcDbEntity
  8
0
  6
Continuous
 62
     7
100
AcDbLine
 10
56.64999999921974
 20
129.3893386840284
 30
0.0
 11
64.14999999921974
 21
129.3893386840284
 31
0.0
  0
LINE
  5
232
330
97
100
AcDbEntity
  8
0
  6
Continuous
 62
     7
100
AcDbLine
 10
63.14999999921974
 20
132.1393386840278
 30
0.0
 11
63.14999999921974
 21
131.1393386840278
 31
0.0
  0
ENDBLK
  5
99
330
97
100
AcDbEntity
  8
0
100
AcDbBlockEnd
  0
BLOCK
  5
9B
330
9A
100
AcDbEntity
  8
0
100
AcDbBlockBegin
  2
Dichtung01_1_1_1_1_1_1
 70
     0
 10
89.24999999922044
 20
129.388713283759
 30
0.0
  3
Dichtung01_1_1_1_1_1_1
  1

  0
LINE
  5
233
330
9A
100
AcDbEntity
  8
0
  6
Continuous
 62
     7
100
AcDbLine
 10
93.65172614814384
 20
133.6393386840261
 30
0.0
 11
95.69151111000023
 21
131.2084176276141
 31
0.0
  0
LINE
  5
234
330
9A
100
AcDbEntity
  8
0
  6
Continuous
 62
     7
100
AcDbLine
 10
89.37499999922044
 20
131.1387132837591
 30
0.0
 11
90.12499999922053
 21
131.1387132837591
 31
0.0
  0
LINE
  5
235
330
9A
100
AcDbEntity
  8
0
  6
Continuous
 62
     7
100
AcDbLine
 10
89.24999999922044
 20
131.0137132837591
 30
0.0
 11
89.24999999922044
 21
129.513713283759
 31
0.0
  0
LINE
  5
236
330
9A
100
AcDbEntity
  8
0
  6
Continuous
 62
     7
100
AcDbLine
 10
96.62499999922044
 20
129.388713283759
 30
0.0
 11
89.37499999922044
 21
129.388713283759
 31
0.0
  0
LINE
  5
237
330
9A
100
AcDbEntity
  8
0
  6
Continuous
 62
     7
100
AcDbLine
 10
96.74999999922044
 20
129.513713283759
 30
0.0
 11
96.74999999922044
 21
131.013713283759
 31
0.0
  0
LINE
  5
238
330
9A
100
AcDbEntity
  8
0
  6
Continuous
 62
     7
100
AcDbLine
 10
96.37499999922044
 20
131.138713283759
 30
0.0
 11
96.62499999922044
 21
131.138713283759
 31
0.0
  0
LINE
  5
239
330
9A
100
AcDbEntity
  8
0
  6
Continuous
 62
     7
100
AcDbLine
 10
96.12499999922044
 20
130.888713283759
 30
0.0
 11
95.74999999922044
 21
130.888713283759
 31
0.0
  0
LINE
  5
23A
330
9A
100
AcDbEntity
  8
0
  6
Continuous
 62
     7
100
AcDbLine
 10
95.74999999922044
 20
130.888713283759
 30
0.0
 11
95.74999999922044
 21
131.0477207251925
 31
0.0
  0
LINE
  5
23B
330
9A
100
AcDbEntity
  8
0
  6
Continuous
 62
     7
100
AcDbLine
 10
93.38193631576813
 20
130.638713283759
 30
0.0
 11
90.49999999922053
 21
130.638713283759
 31
0.0
  0
LINE
  5
23C
330
9A
100
AcDbEntity
  8
0
  6
Continuous
 62
     7
100
AcDbLine
 10
90.24999999922053
 20
130.888713283759
 30
0.0
 11
90.24999999922053
 21
131.013713283759
 31
0.0
  0
LINE
  5
23D
330
9A
100
AcDbEntity
  8
0
  6
Continuous
 62
     7
100
AcDbLine
 10
92.18293664939654
 20
133.6393386840261
 30
0.0
 11
93.65172614814384
 21
133.6393386840261
 31
0.0
  0
LINE
  5
23E
330
9A
100
AcDbEntity
  8
0
  6
Continuous
 62
     7
100
AcDbLine
 10
93.78642537845423
 20
131.4326326573417
 30
0.0
 11
92.18293664939654
 21
133.6393386840261
 31
0.0
  0
ARC
  5
23F
330
9A
100
AcDbEntity
  8
0
  6
Continuous
 62
     7
100
AcDbCircle
 10
93.38193631576813
 20
131.138713283759
 30
0.0
 40
0.5
100
AcDbArc
 50
270.0
 51
36.00378867700252
  0
ARC
  5
240
330
9A
100
AcDbEntity
  8
0
  6
Continuous
 62
     7
100
AcDbCircle
 10
89.37499999922044
 20
131.0137132837591
 30
0.0
 40
0.125
100
AcDbArc
 50
90.0
 51
180.0
  0
ARC
  5
241
330
9A
100
AcDbEntity
  8
0
  6
Continuous
 62
     7
100
AcDbCircle
 10
89.37499999922044
 20
129.513713283759
 30
0.0
 40
0.125
100
AcDbArc
 50
180.0
 51
264.2661953306732
  0
ARC
  5
242
330
9A
100
AcDbEntity
  8
0
  6
Continuous
 62
     7
100
AcDbCircle
 10
96.62499999922044
 20
129.513713283759
 30
0.0
 40
0.125
100
AcDbArc
 50
270.0
 51
275.7338046694176
  0
ARC
  5
243
330
9A
100
AcDbEntity
  8
0
  6
Continuous
 62
     7
100
AcDbCircle
 10
89.37499999922044
 20
129.513713283759
 30
0.0
 40
0.1249999999999895
100
AcDbArc
 50
264.2661953306732
 51
270.0
  0
ARC
  5
244
330
9A
100
AcDbEntity
  8
0
  6
Continuous
 62
     7
100
AcDbCircle
 10
96.37499999922044
 20
130.888713283759
 30
0.0
 40
0.25
100
AcDbArc
 50
90.0
 51
180.0
  0
ARC
  5
245
330
9A
100
AcDbEntity
  8
0
  6
Continuous
 62
     7
100
AcDbCircle
 10
90.49999999922053
 20
130.888713283759
 30
0.0
 40
0.25
100
AcDbArc
 50
180.0
 51
270.0
  0
ARC
  5
246
330
9A
100
AcDbEntity
  8
0
  6
Continuous
 62
     7
100
AcDbCircle
 10
90.12499999922053
 20
131.0137132837591
 30
0.0
 40
0.125
100
AcDbArc
 50
359.9999999999479
 51
90.0
  0
ARC
  5
247
330
9A
100
AcDbEntity
  8
0
  6
Continuous
 62
     7
100
AcDbCircle
 10
95.49999999922044
 20
131.0477207251925
 30
0.0
 40
0.25
100
AcDbArc
 50
0.0
 51
39.99999999998423
  0
ARC
  5
248
330
9A
100
AcDbEntity
  8
0
  6
Continuous
 62
     7
100
AcDbCircle
 10
96.62499999922044
 20
131.013713283759
 30
0.0
 40
0.125
100
AcDbArc
 50
0.0
 51
90.0
  0
ARC
  5
249
330
9A
100
AcDbEntity
  8
0
  6
Continuous
 62
     7
100
AcDbCircle
 10
96.62499999922044
 20
129.513713283759
 30
0.0
 40
0.1250000000000094
100
AcDbArc
 50
275.7338046694176
 51
0.0
  0
ENDBLK
  5
9C
330
9A
100
AcDbEntity
  8
0
100
AcDbBlockEnd
  0
BLOCK
  5
A2
330
9D
100
AcDbEntity
  8
0
100
AcDbBlockBegin
  2
SlidePal_L_40mm
 70
     0
 10
44.49999999922039
 20
127.9393386840276
 30
0.0
  3
SlidePal_L_40mm
  1

  0
INSERT
  5
9E
330
9D
100
AcDbEntity
  8
0
100
AcDbBlockReference
  2
classic_contact_matt_1__17
 10
52.69999999921947
 20
133.6393386840257
 30
0.0
  0
INSERT
  5
9F
330
9D
100
AcDbEntity
  8
0
100
AcDbBlockReference
  2
SAW45_Rev01_bauteil__ausgeklinkt__18
 10
44.49999999922039
 20
154.9393386840276
 30
0.0
  0
INSERT
  5
A0
330
9D
100
AcDbEntity
  8
0
100
AcDbBlockReference
  2
grundkoerper__19
 10
45.6999999992197
 20
127.9393386840276
 30
0.0
  0
INSERT
  5
A1
330
9D
100
AcDbEntity
  8
0
100
AcDbBlockReference
  2
Dichtung01_1_1_1_1_1_1
 10
89.24999999922044
 20
129.388713283759
 30
0.0
  0
ENDBLK
  5
A3
330
9D
100
AcDbEntity
  8
0
100
AcDbBlockEnd
  0
BLOCK
  5
A6
330
A4
100
AcDbEntity
  8
0
100
AcDbBlockBegin
  2
Vordans1
 70
     0
 10
425.7000000000001
 20
140.6
 30
0.0
  3
Vordans1
  1

  0
INSERT
  5
A5
330
A4
100
AcDbEntity
  8
0
100
AcDbBlockReference
  2
SlidePal_L_40mm
 10
44.49999999922039
 20
127.9393386840276
 30
0.0
  0
TEXT
  5
24A
330
A4
100
AcDbEntity
  8
1
 62
     7
100
AcDbText
 10
71.94676060293007
 20
141.360661322805
 30
0.0
 40
3.5
  1
SlidePal U40
 41
0.9
  7
CONVERTER_11
100
AcDbText
  0
MTEXT
  5
24B
330
A4
100
AcDbEntity
  8
1
 62
     7
100
AcDbMText
 10
114.5999999515411
 20
122.9393386840259
 30
0.0
 40
3.5
 41
0.0
 71
     2
 72
     1
  1
 
  7
CONVERTER_11
 73
     1
 44
1.32052821128451
  0
DIMENSION
  5
257
330
A4
100
AcDbEntity
  8
1
100
AcDbDimension
  2
*D39
 10
45.69999999921973
 20
124.888156713999
 30
0.0
 11
111.610189515073
 21
127.138156713999
 31
0.0
 70
    32
  1
<>
 71
     5
 42
-1.0
 53
0.00013888888889
  3
ME10_DIM_22
100
AcDbAlignedDimension
 13
105.6999999992197
 23
127.9393386840284
 33
0.0
 14
45.6999999992197
 24
127.9393386840276
 34
0.0
100
AcDbRotatedDimension
  0
DIMENSION
  5
262
330
A4
100
AcDbEntity
  8
1
100
AcDbDimension
  2
*D40
 10
38.77648592078117
 20
166.1393386840276
 30
0.0
 11
36.52648592078117
 21
147.0393386840276
 31
0.0
 70
    32
  1
<>
 71
     5
 42
-1.0
 53
90.0
  3
ME10_DIM_23
100
AcDbAlignedDimension
 13
45.6999999992197
 23
127.9393386840276
 33
0.0
 14
44.69999999922038
 24
166.1393386840276
 34
0.0
 50
90.0
100
AcDbRotatedDimension
  0
DIMENSION
  5
26D
330
A4
100
AcDbEntity
  8
1
100
AcDbDimension
  2
*D41
 10
84.49999999922045
 20
158.699348375228
 30
0.0
 11
66.09999999922007
 21
160.949348375228
 31
0.0
 70
    32
  1
36.5
 71
     5
 42
-1.0
 53
0.00013888888889
  3
ME10_DIM_24
100
AcDbAlignedDimension
 13
47.6999999992197
 23
164.9393386840275
 33
0.0
 14
84.49999999922044
 24
164.9393386840276
 34
0.0
100
AcDbRotatedDimension
  0
DIMENSION
  5
278
330
A4
100
AcDbEntity
  8
1
100
AcDbDimension
  2
*D42
 10
44.4999999992204
 20
170.906413633887
 30
0.0
 11
64.49999999922042
 21
173.156413633887
 31
0.0
 70
    32
  1
<>
 71
     5
 42
-1.0
 53
0.00013888888889
  3
ME10_DIM_25
100
AcDbAlignedDimension
 13
84.49999999922044
 23
166.1393386840276
 33
0.0
 14
44.49999999922039
 24
165.9393386840276
 34
0.0
100
AcDbRotatedDimension
  0
ENDBLK
  5
A7
330
A4
100
AcDbEntity
  8
0
100
AcDbBlockEnd
  0
BLOCK
  5
A9
330
A8
100
AcDbEntity
  8
0
100
AcDbBlockBegin
  2
A4_Hoch__20
 70
     0
 10
0.0
 20
0.0
 30
0.0
  3
A4_Hoch__20
  1

  0
LINE
  5
279
330
A8
100
AcDbEntity
  8
9_schriftkopf
  6
Continuous
 62
     2
100
AcDbLine
 10
13.20000000507801
 20
10.24999988108208
 30
0.0
 11
67.800000005078
 21
10.24999988108208
 31
0.0
  0
LINE
  5
27A
330
A8
100
AcDbEntity
  8
9_schriftkopf
  6
Continuous
 62
     7
100
AcDbLine
 10
10.2000000050777
 20
288.399999881082
 30
0.0
 11
200.400000005078
 21
288.399999881082
 31
0.0
  0
LINE
  5
27B
330
A8
100
AcDbEntity
  8
9_schriftkopf
  6
Continuous
 62
     7
100
AcDbLine
 10
153.600000005078
 20
5.99999988108208
 30
0.0
 11
153.600000005078
 21
2.99999988108208
 31
0.0
  0
LINE
  5
27C
330
A8
100
AcDbEntity
  8
9_schriftkopf
  6
Continuous
 62
     7
100
AcDbLine
 10
106.800000005078
 20
5.99999988108208
 30
0.0
 11
106.800000005078
 21
2.99999988108208
 31
0.0
  0
LINE
  5
27D
330
A8
100
AcDbEntity
  8
9_schriftkopf
  6
Continuous
 62
     7
100
AcDbLine
 10
60.0000000050778
 20
5.99999988108209
 30
0.0
 11
60.0000000050778
 21
2.99999988108209
 31
0.0
  0
LINE
  5
27E
330
A8
100
AcDbEntity
  8
9_schriftkopf
  6
Continuous
 62
     7
100
AcDbLine
 10
13.2000000050777
 20
238.774996881083
 30
0.0
 11
10.2000000050777
 21
238.774996881083
 31
0.0
  0
LINE
  5
27F
330
A8
100
AcDbEntity
  8
9_schriftkopf
  6
Continuous
 62
     7
100
AcDbLine
 10
13.2000000050777
 20
192.208330881083
 30
0.0
 11
10.2000000050777
 21
192.208330881083
 31
0.0
  0
LINE
  5
280
330
A8
100
AcDbEntity
  8
9_schriftkopf
  6
Continuous
 62
     7
100
AcDbLine
 10
13.2000000050777
 20
145.641664881082
 30
0.0
 11
10.2000000050777
 21
145.641664881082
 31
0.0
  0
LINE
  5
281
330
A8
100
AcDbEntity
  8
9_schriftkopf
  6
Continuous
 62
     7
100
AcDbLine
 10
13.2000000050777
 20
99.0749988810825
 30
0.0
 11
10.2000000050777
 21
99.0749988810825
 31
0.0
  0
LINE
  5
282
330
A8
100
AcDbEntity
  8
9_schriftkopf
  6
Continuous
 62
     7
100
AcDbLine
 10
13.2000000050777
 20
52.5083328810819
 30
0.0
 11
10.2000000050777
 21
52.5083328810819
 31
0.0
  0
LINE
  5
283
330
A8
100
AcDbEntity
  8
9_schriftkopf
  6
Continuous
 62
     7
100
AcDbLine
 10
13.2000000050777
 20
5.99999988108209
 30
0.0
 11
13.2000000050777
 21
288.399999881082
 31
0.0
  0
LINE
  5
284
330
A8
100
AcDbEntity
  8
9_schriftkopf
  6
Continuous
 62
     7
100
AcDbLine
 10
10.2000000050777
 20
2.99999988108209
 30
0.0
 11
10.2000000050777
 21
288.399999881082
 31
0.0
  0
LINE
  5
285
330
A8
100
AcDbEntity
  8
9_schriftkopf
  6
Continuous
 62
     7
100
AcDbLine
 10
200.400000005078
 20
5.99999988108208
 30
0.0
 11
13.2000000050777
 21
5.99999988108209
 31
0.0
  0
LINE
  5
286
330
A8
100
AcDbEntity
  8
9_schriftkopf
  6
Continuous
 62
     7
100
AcDbLine
 10
200.400000005078
 20
2.99999988108208
 30
0.0
 11
10.2000000050777
 21
2.99999988108209
 31
0.0
  0
LINE
  5
287
330
A8
100
AcDbEntity
  8
9_schriftkopf
  6
Continuous
 62
     7
100
AcDbLine
 10
200.400000005078
 20
288.399999881082
 30
0.0
 11
200.400000005078
 21
2.99999988108208
 31
0.0
  0
LINE
  5
288
330
A8
100
AcDbEntity
  8
9_schriftkopf
  6
Continuous
 62
     2
100
AcDbLine
 10
78.200000005078
 20
27.24999988108208
 30
0.0
 11
93.800000005078
 21
27.24999988108208
 31
0.0
  0
LINE
  5
289
330
A8
100
AcDbEntity
  8
9_schriftkopf
  6
Continuous
 62
     2
100
AcDbLine
 10
93.800000005078
 20
27.24999988108208
 30
0.0
 11
112.0000000050781
 21
27.24999988108208
 31
0.0
  0
LINE
  5
28A
330
A8
100
AcDbEntity
  8
9_schriftkopf
  6
Continuous
 62
     2
100
AcDbLine
 10
78.200000005078
 20
44.24999988108208
 30
0.0
 11
78.200000005078
 21
27.24999988108208
 31
0.0
  0
LINE
  5
28B
330
A8
100
AcDbEntity
  8
9_schriftkopf
  6
Continuous
 62
     2
100
AcDbLine
 10
93.800000005078
 20
61.24999988108208
 30
0.0
 11
93.800000005078
 21
27.24999988108208
 31
0.0
  0
LINE
  5
28C
330
A8
100
AcDbEntity
  8
9_schriftkopf
  6
Continuous
 62
     2
100
AcDbLine
 10
13.20000000507801
 20
27.24999988108208
 30
0.0
 11
78.200000005078
 21
27.24999988108208
 31
0.0
  0
LINE
  5
28D
330
A8
100
AcDbEntity
  8
1
  6
Continuous
 62
     7
100
AcDbLine
 10
13.20000000507801
 20
22.99999988108208
 30
0.0
 11
13.20000000507801
 21
61.24999988108208
 31
0.0
  0
LINE
  5
28E
330
A8
100
AcDbEntity
  8
9_schriftkopf
  6
Continuous
 62
     2
100
AcDbLine
 10
67.800000005078
 20
22.99999988108208
 30
0.0
 11
67.800000005078
 21
5.99999988108208
 31
0.0
  0
LINE
  5
28F
330
A8
100
AcDbEntity
  8
9_schriftkopf
  6
Continuous
 62
     2
100
AcDbLine
 10
67.800000005078
 20
22.99999988108208
 30
0.0
 11
67.800000005078
 21
5.99999988108208
 31
0.0
  0
LINE
  5
290
330
A8
100
AcDbEntity
  8
9_schriftkopf
  6
Continuous
 62
     2
100
AcDbLine
 10
67.800000005078
 20
22.99999988108208
 30
0.0
 11
67.800000005078
 21
5.99999988108208
 31
0.0
  0
LINE
  5
291
330
A8
100
AcDbEntity
  8
9_schriftkopf
  6
Continuous
 62
     2
100
AcDbLine
 10
67.800000005078
 20
22.99999988108208
 30
0.0
 11
67.800000005078
 21
5.99999988108208
 31
0.0
  0
LINE
  5
292
330
A8
100
AcDbEntity
  8
1
  6
Continuous
 62
     2
100
AcDbLine
 10
67.800000005078
 20
22.99999988108208
 30
0.0
 11
13.20000000507801
 21
22.99999988108208
 31
0.0
  0
LINE
  5
293
330
A8
100
AcDbEntity
  8
9_schriftkopf
  6
Continuous
 62
     2
100
AcDbLine
 10
112.0000000050781
 20
22.99999988108208
 30
0.0
 11
112.0000000050781
 21
5.99999988108208
 31
0.0
  0
LINE
  5
294
330
A8
100
AcDbEntity
  8
9_schriftkopf
  6
Continuous
 62
     2
100
AcDbLine
 10
112.0000000050781
 20
22.99999988108208
 30
0.0
 11
112.0000000050781
 21
5.99999988108208
 31
0.0
  0
LINE
  5
295
330
A8
100
AcDbEntity
  8
9_schriftkopf
  6
Continuous
 62
     2
100
AcDbLine
 10
112.0000000050781
 20
22.99999988108208
 30
0.0
 11
112.0000000050781
 21
5.99999988108208
 31
0.0
  0
LINE
  5
296
330
A8
100
AcDbEntity
  8
9_schriftkopf
  6
Continuous
 62
     2
100
AcDbLine
 10
112.0000000050781
 20
22.99999988108208
 30
0.0
 11
112.0000000050781
 21
5.99999988108208
 31
0.0
  0
LINE
  5
297
330
A8
100
AcDbEntity
  8
1
  6
Continuous
 62
     2
100
AcDbLine
 10
112.0000000050781
 20
22.99999988108208
 30
0.0
 11
200.400000005078
 21
22.99999988108208
 31
0.0
  0
LINE
  5
298
330
A8
100
AcDbEntity
  8
1
  6
Continuous
 62
     7
100
AcDbLine
 10
13.20000000507801
 20
61.24999988108208
 30
0.0
 11
200.400000005078
 21
61.24999988108208
 31
0.0
  0
LINE
  5
299
330
A8
100
AcDbEntity
  8
1
  6
Continuous
 62
     7
100
AcDbLine
 10
13.2000000050777
 20
5.99999988108209
 30
0.0
 11
13.20000000507801
 21
22.99999988108208
 31
0.0
  0
LINE
  5
29A
330
A8
100
AcDbEntity
  8
9_schriftkopf
  6
Continuous
 62
     2
100
AcDbLine
 10
67.800000005078
 20
44.24999988108208
 30
0.0
 11
200.4000000050782
 21
44.24999988108208
 31
0.0
  0
LINE
  5
29B
330
A8
100
AcDbEntity
  8
9_schriftkopf
  6
Continuous
 62
     2
100
AcDbLine
 10
67.800000005078
 20
44.24999988108208
 30
0.0
 11
67.800000005078
 21
22.99999988108208
 31
0.0
  0
LINE
  5
29C
330
A8
100
AcDbEntity
  8
9_schriftkopf
  6
Continuous
 62
     2
100
AcDbLine
 10
13.20000000507801
 20
44.24999988108208
 30
0.0
 11
67.800000005078
 21
44.24999988108208
 31
0.0
  0
LINE
  5
29D
330
A8
100
AcDbEntity
  8
9_schriftkopf
  6
Continuous
 62
     2
100
AcDbLine
 10
112.0000000050782
 20
54.87499988108208
 30
0.0
 11
200.4000000050782
 21
54.87499988108208
 31
0.0
  0
LINE
  5
29E
330
A8
100
AcDbEntity
  8
9_schriftkopf
  6
Continuous
 62
     2
100
AcDbLine
 10
67.800000005078
 20
61.24999988108208
 30
0.0
 11
67.800000005078
 21
22.99999988108208
 31
0.0
  0
LINE
  5
29F
330
A8
100
AcDbEntity
  8
9_schriftkopf
  6
Continuous
 62
     2
100
AcDbLine
 10
112.0000000050782
 20
61.24999988108208
 30
0.0
 11
112.0000000050781
 21
22.99999988108208
 31
0.0
  0
LINE
  5
2A0
330
A8
100
AcDbEntity
  8
9_schriftkopf
  6
Continuous
 62
     2
100
AcDbLine
 10
13.20000000507801
 20
39.99999988108208
 30
0.0
 11
112.0000000050781
 21
39.99999988108208
 31
0.0
  0
LINE
  5
2A1
330
A8
100
AcDbEntity
  8
9_schriftkopf
  6
Continuous
 62
     2
100
AcDbLine
 10
13.20000000507801
 20
35.74999988108208
 30
0.0
 11
112.0000000050781
 21
35.74999988108208
 31
0.0
  0
LINE
  5
2A2
330
A8
100
AcDbEntity
  8
9_schriftkopf
  6
Continuous
 62
     2
100
AcDbLine
 10
13.20000000507801
 20
31.49999988108208
 30
0.0
 11
112.0000000050781
 21
31.49999988108208
 31
0.0
  0
LINE
  5
2A3
330
A8
100
AcDbEntity
  8
9_schriftkopf
  6
Continuous
 62
     2
100
AcDbLine
 10
13.20000000507801
 20
14.49999988108208
 30
0.0
 11
67.800000005078
 21
14.49999988108208
 31
0.0
  0
LINE
  5
2A4
330
A8
100
AcDbEntity
  8
9_schriftkopf
  6
Continuous
 62
     2
100
AcDbLine
 10
13.20000000507801
 20
18.74999988108208
 30
0.0
 11
67.800000005078
 21
18.74999988108208
 31
0.0
  0
LINE
  5
2A5
330
A8
100
AcDbEntity
  8
9_schriftkopf
  6
Continuous
 62
     2
100
AcDbLine
 10
21.00000000507799
 20
44.24999988108208
 30
0.0
 11
21.00000000507799
 21
5.99999988108208
 31
0.0
  0
LINE
  5
2A6
330
A8
100
AcDbEntity
  8
9_schriftkopf
  6
Continuous
 62
     2
100
AcDbLine
 10
47.00000000507799
 20
44.24999988108208
 30
0.0
 11
47.00000000507799
 21
5.99999988108208
 31
0.0
  0
LINE
  5
2A7
330
A8
100
AcDbEntity
  8
9_schriftkopf
  6
Continuous
 62
     2
100
AcDbLine
 10
60.00000000507799
 20
44.24999988108208
 30
0.0
 11
60.0000000050778
 21
5.99999988108209
 31
0.0
  0
LINE
  5
2A8
330
A8
100
AcDbEntity
  8
9_schriftkopf
  6
Continuous
 62
     2
100
AcDbLine
 10
164.0000000050781
 20
61.24999988108198
 30
0.0
 11
164.0000000050781
 21
54.87499988108208
 31
0.0
  0
LINE
  5
2A9
330
A8
100
AcDbEntity
  8
9_schriftkopf
  6
Continuous
 62
     2
100
AcDbLine
 10
187.400000005078
 20
14.49999988108208
 30
0.0
 11
200.400000005078
 21
14.49999988108208
 31
0.0
  0
LINE
  5
2AA
330
A8
100
AcDbEntity
  8
9_schriftkopf
  6
Continuous
 62
     2
100
AcDbLine
 10
187.4000000050781
 20
22.99999988108208
 30
0.0
 11
187.4000000050781
 21
10.24999988108208
 31
0.0
  0
LINE
  5
2AB
330
A8
100
AcDbEntity
  8
9_schriftkopf
  6
Continuous
 62
     2
100
AcDbLine
 10
156.200000005078
 20
10.24999988108208
 30
0.0
 11
156.200000005078
 21
5.99999988108199
 31
0.0
  0
LINE
  5
2AC
330
A8
100
AcDbEntity
  8
9_schriftkopf
  6
Continuous
 62
     2
100
AcDbLine
 10
112.0000000050781
 20
10.24999988108208
 30
0.0
 11
200.400000005078
 21
10.24999988108208
 31
0.0
  0
LINE
  5
2AD
330
A8
100
AcDbEntity
  8
9_schriftkopf
  6
Continuous
 62
     2
100
AcDbLine
 10
13.20000000507801
 20
44.24999988108208
 30
0.0
 11
200.4000000050782
 21
44.24999988108208
 31
0.0
  0
LINE
  5
2AE
330
A8
100
AcDbEntity
  8
9_schriftkopf
  6
Continuous
 62
     2
100
AcDbLine
 10
112.0000000050782
 20
54.87499988108208
 30
0.0
 11
200.4000000050782
 21
54.87499988108208
 31
0.0
  0
LINE
  5
2AF
330
A8
100
AcDbEntity
  8
9_schriftkopf
  6
Continuous
 62
     2
100
AcDbLine
 10
67.800000005078
 20
61.24999988108208
 30
0.0
 11
67.800000005078
 21
22.99999988108208
 31
0.0
  0
LINE
  5
2B0
330
A8
100
AcDbEntity
  8
9_schriftkopf
  6
Continuous
 62
     2
100
AcDbLine
 10
112.0000000050782
 20
61.24999988108208
 30
0.0
 11
112.0000000050781
 21
22.99999988108208
 31
0.0
  0
LINE
  5
2B1
330
A8
100
AcDbEntity
  8
9_schriftkopf
  6
Continuous
 62
     2
100
AcDbLine
 10
13.20000000507801
 20
39.99999988108208
 30
0.0
 11
112.0000000050781
 21
39.99999988108208
 31
0.0
  0
LINE
  5
2B2
330
A8
100
AcDbEntity
  8
9_schriftkopf
  6
Continuous
 62
     2
100
AcDbLine
 10
13.20000000507801
 20
35.74999988108208
 30
0.0
 11
112.0000000050781
 21
35.74999988108208
 31
0.0
  0
LINE
  5
2B3
330
A8
100
AcDbEntity
  8
9_schriftkopf
  6
Continuous
 62
     2
100
AcDbLine
 10
13.20000000507801
 20
31.49999988108208
 30
0.0
 11
112.0000000050781
 21
31.49999988108208
 31
0.0
  0
LINE
  5
2B4
330
A8
100
AcDbEntity
  8
9_schriftkopf
  6
Continuous
 62
     2
100
AcDbLine
 10
13.20000000507801
 20
27.24999988108208
 30
0.0
 11
112.0000000050781
 21
27.24999988108208
 31
0.0
  0
LINE
  5
2B5
330
A8
100
AcDbEntity
  8
9_schriftkopf
  6
Continuous
 62
     2
100
AcDbLine
 10
13.20000000507801
 20
14.49999988108208
 30
0.0
 11
67.800000005078
 21
14.49999988108208
 31
0.0
  0
LINE
  5
2B6
330
A8
100
AcDbEntity
  8
9_schriftkopf
  6
Continuous
 62
     2
100
AcDbLine
 10
13.20000000507801
 20
18.74999988108208
 30
0.0
 11
67.800000005078
 21
18.74999988108208
 31
0.0
  0
LINE
  5
2B7
330
A8
100
AcDbEntity
  8
9_schriftkopf
  6
Continuous
 62
     2
100
AcDbLine
 10
21.00000000507799
 20
44.24999988108208
 30
0.0
 11
21.00000000507799
 21
5.99999988108208
 31
0.0
  0
LINE
  5
2B8
330
A8
100
AcDbEntity
  8
9_schriftkopf
  6
Continuous
 62
     2
100
AcDbLine
 10
47.00000000507799
 20
44.24999988108208
 30
0.0
 11
47.00000000507799
 21
5.99999988108208
 31
0.0
  0
LINE
  5
2B9
330
A8
100
AcDbEntity
  8
9_schriftkopf
  6
Continuous
 62
     2
100
AcDbLine
 10
60.00000000507799
 20
44.24999988108208
 30
0.0
 11
60.0000000050778
 21
5.99999988108209
 31
0.0
  0
LINE
  5
2BA
330
A8
100
AcDbEntity
  8
9_schriftkopf
  6
Continuous
 62
     2
100
AcDbLine
 10
164.0000000050781
 20
61.24999988108198
 30
0.0
 11
164.0000000050781
 21
54.87499988108208
 31
0.0
  0
LINE
  5
2BB
330
A8
100
AcDbEntity
  8
9_schriftkopf
  6
Continuous
 62
     2
100
AcDbLine
 10
187.400000005078
 20
14.49999988108208
 30
0.0
 11
200.400000005078
 21
14.49999988108208
 31
0.0
  0
LINE
  5
2BC
330
A8
100
AcDbEntity
  8
9_schriftkopf
  6
Continuous
 62
     2
100
AcDbLine
 10
187.4000000050781
 20
22.99999988108208
 30
0.0
 11
187.4000000050781
 21
10.24999988108208
 31
0.0
  0
LINE
  5
2BD
330
A8
100
AcDbEntity
  8
9_schriftkopf
  6
Continuous
 62
     2
100
AcDbLine
 10
156.200000005078
 20
10.24999988108208
 30
0.0
 11
156.200000005078
 21
5.99999988108199
 31
0.0
  0
LINE
  5
2BE
330
A8
100
AcDbEntity
  8
9_schriftkopf
  6
Continuous
 62
     2
100
AcDbLine
 10
112.0000000050781
 20
10.24999988108208
 30
0.0
 11
200.400000005078
 21
10.24999988108208
 31
0.0
  0
LINE
  5
2BF
330
A8
100
AcDbEntity
  8
9_schriftkopf
  6
Continuous
 62
     2
100
AcDbLine
 10
13.20000000507801
 20
44.24999988108208
 30
0.0
 11
200.4000000050782
 21
44.24999988108208
 31
0.0
  0
LINE
  5
2C0
330
A8
100
AcDbEntity
  8
9_schriftkopf
  6
Continuous
 62
     2
100
AcDbLine
 10
112.0000000050782
 20
54.87499988108208
 30
0.0
 11
200.4000000050782
 21
54.87499988108208
 31
0.0
  0
LINE
  5
2C1
330
A8
100
AcDbEntity
  8
9_schriftkopf
  6
Continuous
 62
     2
100
AcDbLine
 10
67.800000005078
 20
61.24999988108208
 30
0.0
 11
67.800000005078
 21
22.99999988108208
 31
0.0
  0
LINE
  5
2C2
330
A8
100
AcDbEntity
  8
9_schriftkopf
  6
Continuous
 62
     2
100
AcDbLine
 10
112.0000000050782
 20
61.24999988108208
 30
0.0
 11
112.0000000050781
 21
22.99999988108208
 31
0.0
  0
LINE
  5
2C3
330
A8
100
AcDbEntity
  8
9_schriftkopf
  6
Continuous
 62
     2
100
AcDbLine
 10
13.20000000507801
 20
39.99999988108208
 30
0.0
 11
112.0000000050781
 21
39.99999988108208
 31
0.0
  0
LINE
  5
2C4
330
A8
100
AcDbEntity
  8
9_schriftkopf
  6
Continuous
 62
     2
100
AcDbLine
 10
13.20000000507801
 20
35.74999988108208
 30
0.0
 11
112.0000000050781
 21
35.74999988108208
 31
0.0
  0
LINE
  5
2C5
330
A8
100
AcDbEntity
  8
9_schriftkopf
  6
Continuous
 62
     2
100
AcDbLine
 10
13.20000000507801
 20
31.49999988108208
 30
0.0
 11
112.0000000050781
 21
31.49999988108208
 31
0.0
  0
LINE
  5
2C6
330
A8
100
AcDbEntity
  8
9_schriftkopf
  6
Continuous
 62
     2
100
AcDbLine
 10
13.20000000507801
 20
27.24999988108208
 30
0.0
 11
112.0000000050781
 21
27.24999988108208
 31
0.0
  0
LINE
  5
2C7
330
A8
100
AcDbEntity
  8
9_schriftkopf
  6
Continuous
 62
     2
100
AcDbLine
 10
13.20000000507801
 20
14.49999988108208
 30
0.0
 11
67.800000005078
 21
14.49999988108208
 31
0.0
  0
LINE
  5
2C8
330
A8
100
AcDbEntity
  8
9_schriftkopf
  6
Continuous
 62
     2
100
AcDbLine
 10
13.20000000507801
 20
18.74999988108208
 30
0.0
 11
67.800000005078
 21
18.74999988108208
 31
0.0
  0
LINE
  5
2C9
330
A8
100
AcDbEntity
  8
9_schriftkopf
  6
Continuous
 62
     2
100
AcDbLine
 10
21.00000000507799
 20
44.24999988108208
 30
0.0
 11
21.00000000507799
 21
5.99999988108208
 31
0.0
  0
LINE
  5
2CA
330
A8
100
AcDbEntity
  8
9_schriftkopf
  6
Continuous
 62
     2
100
AcDbLine
 10
47.00000000507799
 20
44.24999988108208
 30
0.0
 11
47.00000000507799
 21
5.99999988108208
 31
0.0
  0
LINE
  5
2CB
330
A8
100
AcDbEntity
  8
9_schriftkopf
  6
Continuous
 62
     2
100
AcDbLine
 10
60.00000000507799
 20
44.24999988108208
 30
0.0
 11
60.0000000050778
 21
5.99999988108209
 31
0.0
  0
LINE
  5
2CC
330
A8
100
AcDbEntity
  8
9_schriftkopf
  6
Continuous
 62
     2
100
AcDbLine
 10
164.0000000050781
 20
61.24999988108198
 30
0.0
 11
164.0000000050781
 21
54.87499988108208
 31
0.0
  0
LINE
  5
2CD
330
A8
100
AcDbEntity
  8
9_schriftkopf
  6
Continuous
 62
     2
100
AcDbLine
 10
187.400000005078
 20
14.49999988108208
 30
0.0
 11
200.400000005078
 21
14.49999988108208
 31
0.0
  0
LINE
  5
2CE
330
A8
100
AcDbEntity
  8
9_schriftkopf
  6
Continuous
 62
     2
100
AcDbLine
 10
187.4000000050781
 20
22.99999988108208
 30
0.0
 11
187.4000000050781
 21
10.24999988108208
 31
0.0
  0
LINE
  5
2CF
330
A8
100
AcDbEntity
  8
9_schriftkopf
  6
Continuous
 62
     2
100
AcDbLine
 10
156.200000005078
 20
10.24999988108208
 30
0.0
 11
156.200000005078
 21
5.99999988108199
 31
0.0
  0
LINE
  5
2D0
330
A8
100
AcDbEntity
  8
9_schriftkopf
  6
Continuous
 62
     2
100
AcDbLine
 10
112.0000000050781
 20
10.24999988108208
 30
0.0
 11
200.400000005078
 21
10.24999988108208
 31
0.0
  0
LINE
  5
2D1
330
A8
100
AcDbEntity
  8
9_schriftkopf
  6
Continuous
 62
     2
100
AcDbLine
 10
13.20000000507801
 20
44.24999988108208
 30
0.0
 11
200.4000000050782
 21
44.24999988108208
 31
0.0
  0
LINE
  5
2D2
330
A8
100
AcDbEntity
  8
9_schriftkopf
  6
Continuous
 62
     2
100
AcDbLine
 10
112.0000000050782
 20
54.87499988108208
 30
0.0
 11
200.4000000050782
 21
54.87499988108208
 31
0.0
  0
LINE
  5
2D3
330
A8
100
AcDbEntity
  8
9_schriftkopf
  6
Continuous
 62
     2
100
AcDbLine
 10
67.800000005078
 20
61.24999988108208
 30
0.0
 11
67.800000005078
 21
44.24999988108208
 31
0.0
  0
LINE
  5
2D4
330
A8
100
AcDbEntity
  8
9_schriftkopf
  6
Continuous
 62
     2
100
AcDbLine
 10
112.0000000050782
 20
61.24999988108208
 30
0.0
 11
112.0000000050781
 21
22.99999988108208
 31
0.0
  0
LINE
  5
2D5
330
A8
100
AcDbEntity
  8
9_schriftkopf
  6
Continuous
 62
     2
100
AcDbLine
 10
13.20000000507801
 20
39.99999988108208
 30
0.0
 11
112.0000000050781
 21
39.99999988108208
 31
0.0
  0
LINE
  5
2D6
330
A8
100
AcDbEntity
  8
9_schriftkopf
  6
Continuous
 62
     2
100
AcDbLine
 10
13.20000000507801
 20
35.74999988108208
 30
0.0
 11
112.0000000050781
 21
35.74999988108208
 31
0.0
  0
LINE
  5
2D7
330
A8
100
AcDbEntity
  8
9_schriftkopf
  6
Continuous
 62
     2
100
AcDbLine
 10
13.20000000507801
 20
31.49999988108208
 30
0.0
 11
112.0000000050781
 21
31.49999988108208
 31
0.0
  0
LINE
  5
2D8
330
A8
100
AcDbEntity
  8
9_schriftkopf
  6
Continuous
 62
     2
100
AcDbLine
 10
13.20000000507801
 20
27.24999988108208
 30
0.0
 11
112.0000000050781
 21
27.24999988108208
 31
0.0
  0
LINE
  5
2D9
330
A8
100
AcDbEntity
  8
9_schriftkopf
  6
Continuous
 62
     2
100
AcDbLine
 10
13.20000000507801
 20
14.49999988108208
 30
0.0
 11
67.800000005078
 21
14.49999988108208
 31
0.0
  0
LINE
  5
2DA
330
A8
100
AcDbEntity
  8
9_schriftkopf
  6
Continuous
 62
     2
100
AcDbLine
 10
13.20000000507801
 20
18.74999988108208
 30
0.0
 11
67.800000005078
 21
18.74999988108208
 31
0.0
  0
LINE
  5
2DB
330
A8
100
AcDbEntity
  8
9_schriftkopf
  6
Continuous
 62
     2
100
AcDbLine
 10
21.00000000507799
 20
44.24999988108208
 30
0.0
 11
21.00000000507799
 21
5.99999988108208
 31
0.0
  0
LINE
  5
2DC
330
A8
100
AcDbEntity
  8
9_schriftkopf
  6
Continuous
 62
     2
100
AcDbLine
 10
47.00000000507799
 20
44.24999988108208
 30
0.0
 11
47.00000000507799
 21
5.99999988108208
 31
0.0
  0
LINE
  5
2DD
330
A8
100
AcDbEntity
  8
9_schriftkopf
  6
Continuous
 62
     2
100
AcDbLine
 10
60.00000000507799
 20
44.24999988108208
 30
0.0
 11
60.0000000050778
 21
5.99999988108209
 31
0.0
  0
LINE
  5
2DE
330
A8
100
AcDbEntity
  8
9_schriftkopf
  6
Continuous
 62
     2
100
AcDbLine
 10
164.0000000050781
 20
61.24999988108198
 30
0.0
 11
164.0000000050781
 21
54.87499988108208
 31
0.0
  0
LINE
  5
2DF
330
A8
100
AcDbEntity
  8
9_schriftkopf
  6
Continuous
 62
     2
100
AcDbLine
 10
187.400000005078
 20
14.49999988108208
 30
0.0
 11
200.400000005078
 21
14.49999988108208
 31
0.0
  0
LINE
  5
2E0
330
A8
100
AcDbEntity
  8
9_schriftkopf
  6
Continuous
 62
     2
100
AcDbLine
 10
187.4000000050781
 20
22.99999988108208
 30
0.0
 11
187.4000000050781
 21
10.24999988108208
 31
0.0
  0
LINE
  5
2E1
330
A8
100
AcDbEntity
  8
9_schriftkopf
  6
Continuous
 62
     2
100
AcDbLine
 10
156.200000005078
 20
10.24999988108208
 30
0.0
 11
156.200000005078
 21
5.99999988108199
 31
0.0
  0
LINE
  5
2E2
330
A8
100
AcDbEntity
  8
9_schriftkopf
  6
Continuous
 62
     2
100
AcDbLine
 10
112.0000000050781
 20
10.24999988108208
 30
0.0
 11
200.400000005078
 21
10.24999988108208
 31
0.0
  0
IMAGE
  5
2E5
330
A8
100
AcDbEntity
  8
0
 92
      140
310
8C0000000100000084000000060000000500000042041B2EC9D25140B462C0F212561D400000000000000000667A889D00FC5A40B462C0F212561D400000000000000000667A889D00FC5A40ED9C682F7B223A40000000000000000042041B2EC9D25140ED9C682F7B223A40000000000000000042041B2EC9D25140B462C0
310
F212561D400000000000000000
100
AcDbRasterImage
 90
        0
 10
71.29352905882209
 20
7.3340566568301
 30
0.0
 11
0.02553589442508711
 21
0.0
 31
0.0
 12
0.0
 22
0.02554434171195652
 32
0.0
 13
1435.0
 23
736.0
340
2E4
 70
     3
280
     0
281
    50
282
    50
283
     0
360
2E6
 71
     1
 91
        2
 14
-0.5
 24
-0.5
 14
1434.5
 24
735.5
  0
MTEXT
  5
2E8
330
A8
100
AcDbEntity
  8
1
 62
     2
100
AcDbMText
 10
63.8850097523162
 20
12.2658420136167
 30
0.0
 40
2.5
 41
0.0
 71
     5
 72
     1
  1
GK
  7
CONVERTER_12
 73
     1
 44
1.32052821128451
  0
MTEXT
  5
2EA
330
A8
100
AcDbEntity
  8
1
 62
     2
100
AcDbMText
 10
53.5192144307295
 20
12.496193020763
 30
0.0
 40
2.5
 41
0.0
 71
     5
 72
     1
  1
17.2.2014
  7
CONVERTER_13
 73
     1
 44
1.32052821128451
  0
MTEXT
  5
2EC
330
A8
100
AcDbEntity
  8
1
 62
     2
100
AcDbMText
 10
33.9393788232881
 20
12.6689562761228
 30
0.0
 40
2.5
 41
0.0
 71
     5
 72
     1
  1
Breite 40 hinzugef.
  7
CONVERTER_14
 73
     1
 44
1.32052821128451
  0
MTEXT
  5
2ED
330
A8
100
AcDbEntity
  8
1
 62
     2
100
AcDbMText
 10
17.0661675498165
 20
12.3810175171899
 30
0.0
 40
2.5
 41
0.0
 71
     5
 72
     1
  1
1
  7
CONVERTER_13
 73
     1
 44
1.32052821128451
  0
TEXT
  5
2EF
330
A8
100
AcDbEntity
  8
9_schriftkopf
 62
     2
100
AcDbText
 10
11.4500000050777
 20
214.712495381083
 30
0.0
 40
1.5
  1
2
 41
1.0
  7
CONVERTER_15
100
AcDbText
  0
TEXT
  5
2F0
330
A8
100
AcDbEntity
  8
9_schriftkopf
 62
     2
100
AcDbText
 10
177.225000005078
 20
3.74999988108208
 30
0.0
 40
1.5
  1
D
 41
1.0
  7
CONVERTER_15
100
AcDbText
  0
TEXT
  5
2F1
330
A8
100
AcDbEntity
  8
9_schriftkopf
 62
     2
100
AcDbText
 10
130.425000005078
 20
3.74999988108208
 30
0.0
 40
1.5
  1
C
 41
1.0
  7
CONVERTER_15
100
AcDbText
  0
TEXT
  5
2F2
330
A8
100
AcDbEntity
  8
9_schriftkopf
 62
     2
100
AcDbText
 10
83.1750000050778
 20
3.74999988108209
 30
0.0
 40
1.5
  1
B
 41
1.0
  7
CONVERTER_15
100
AcDbText
  0
TEXT
  5
2F3
330
A8
100
AcDbEntity
  8
9_schriftkopf
 62
     2
100
AcDbText
 10
36.3750000050777
 20
3.74999988108209
 30
0.0
 40
1.5
  1
A
 41
1.0
  7
CONVERTER_15
100
AcDbText
  0
TEXT
  5
2F4
330
A8
100
AcDbEntity
  8
9_schriftkopf
 62
     2
100
AcDbText
 10
11.4500000050777
 20
28.4458313810823
 30
0.0
 40
1.5
  1
6
 41
1.0
  7
CONVERTER_15
100
AcDbText
  0
TEXT
  5
2F5
330
A8
100
AcDbEntity
  8
9_schriftkopf
 62
     2
100
AcDbText
 10
11.4500000050777
 20
75.0124973810829
 30
0.0
 40
1.5
  1
5
 41
1.0
  7
CONVERTER_15
100
AcDbText
  0
TEXT
  5
2F6
330
A8
100
AcDbEntity
  8
9_schriftkopf
 62
     2
100
AcDbText
 10
11.4500000050777
 20
121.579163381083
 30
0.0
 40
1.5
  1
4
 41
1.0
  7
CONVERTER_15
100
AcDbText
  0
TEXT
  5
2F7
330
A8
100
AcDbEntity
  8
9_schriftkopf
 62
     2
100
AcDbText
 10
11.4500000050777
 20
168.145829381083
 30
0.0
 40
1.5
  1
3
 41
1.0
  7
CONVERTER_15
100
AcDbText
  0
TEXT
  5
2F8
330
A8
100
AcDbEntity
  8
9_schriftkopf
 62
     2
100
AcDbText
 10
11.7000000050777
 20
261.337498381082
 30
0.0
 40
1.5
  1
1
 41
1.0
  7
CONVERTER_15
100
AcDbText
  0
MTEXT
  5
2F9
330
A8
100
AcDbEntity
  8
9_schriftkopf
 62
     2
100
AcDbMText
 10
102.9000000050781
 20
29.37499988108208
 30
0.0
 40
2.5
 41
0.0
 71
     5
 72
     1
  1
-
  7
CONVERTER_13
 73
     1
 44
1.32052821128451
  0
MTEXT
  5
2FA
330
A8
100
AcDbEntity
  8
9_schriftkopf
 62
     2
100
AcDbMText
 10
86.000000005078
 20
29.37499988108208
 30
0.0
 40
2.5
 41
0.0
 71
     5
 72
     1
  1
-
  7
CONVERTER_13
 73
     1
 44
1.32052821128451
  0
MTEXT
  5
2FB
330
A8
100
AcDbEntity
  8
9_schriftkopf
 62
     2
100
AcDbMText
 10
182.479964419057
 20
8.25175568028611
 30
0.0
 40
2.5
 41
0.0
 71
     4
 72
     1
  1
-
  7
CONVERTER_13
 73
     1
 44
1.32052821128451
  0
MTEXT
  5
2FC
330
A8
100
AcDbEntity
  8
9_schriftkopf
 62
     2
100
AcDbMText
 10
113.1262599075697
 20
56.81249988108208
 30
0.0
 40
2.5
 41
0.0
 71
     7
 72
     1
  1
Ma\U+00dfstab:
  7
CONVERTER_13
 73
     1
 44
1.32052821128451
  0
MTEXT
  5
2FD
330
A8
100
AcDbEntity
  8
9_schriftkopf
 62
     2
100
AcDbMText
 10
63.900000005078
 20
8.12499988108208
 30
0.0
 40
2.5
 41
0.0
 71
     5
 72
     1
  1
Name
  7
CONVERTER_12
 73
     1
 44
1.32052821128451
  0
MTEXT
  5
2FE
330
A8
100
AcDbEntity
  8
9_schriftkopf
 62
     2
100
AcDbMText
 10
33.82323427651779
 20
8.51202359602815
 30
0.0
 40
2.5
 41
0.0
 71
     5
 72
     1
  1
\U+00c4nderung
  7
CONVERTER_13
 73
     1
 44
1.32052821128451
  0
MTEXT
  5
2FF
330
A8
100
AcDbEntity
  8
9_schriftkopf
 62
     2
100
AcDbMText
 10
53.50000000507799
 20
8.12499988108208
 30
0.0
 40
2.5
 41
0.0
 71
     5
 72
     1
  1
Datum
  7
CONVERTER_13
 73
     1
 44
1.32052821128451
  0
TEXT
  5
300
330
A8
100
AcDbEntity
  8
9_schriftkopf
 62
     2
100
AcDbText
 10
68.79893356896198
 20
32.37499988108208
 30
0.0
 40
2.5
  1
Gepr.
 41
0.72
  7
CONVERTER_13
100
AcDbText
  0
TEXT
  5
301
330
A8
100
AcDbEntity
  8
9_schriftkopf
 62
     2
100
AcDbText
 10
68.79893356896198
 20
28.12499988108208
 30
0.0
 40
2.5
  1
Norm
 41
0.72
  7
CONVERTER_13
100
AcDbText
  0
TEXT
  5
302
330
A8
100
AcDbEntity
  8
9_schriftkopf
 62
     2
100
AcDbText
 10
68.79893356896198
 20
36.62499988108208
 30
0.0
 40
2.5
  1
Bearb.
 41
0.72
  7
CONVERTER_13
100
AcDbText
  0
MTEXT
  5
303
330
A8
100
AcDbEntity
  8
9_schriftkopf
 62
     2
100
AcDbMText
 10
157.8767000490708
 20
8.12499988108208
 30
0.0
 40
2.5
 41
0.0
 71
     4
 72
     1
  1
Ersatz durch:
  7
CONVERTER_13
 73
     1
 44
1.32052821128451
  0
MTEXT
  5
304
330
A8
100
AcDbEntity
  8
9_schriftkopf
 62
     2
100
AcDbMText
 10
113.6767000490708
 20
8.12499988108208
 30
0.0
 40
2.5
 41
0.0
 71
     4
 72
     1
  1
Ersatz f\U+00fcr:
  7
CONVERTER_13
 73
     1
 44
1.32052821128451
  0
TEXT
  5
305
330
A8
100
AcDbEntity
  8
9_schriftkopf
 62
     2
100
AcDbText
 10
69.40366596018501
 20
56.81249988108208
 30
0.0
 40
2.5
  1
(Zul. Abw.)
 41
0.72
  7
CONVERTER_13
100
AcDbText
  0
TEXT
  5
306
330
A8
100
AcDbEntity
  8
9_schriftkopf
 62
     2
100
AcDbText
 10
95.246098158234
 20
56.81249988108208
 30
0.0
 40
2.5
  1
(Oberfl.)
 41
0.72
  7
CONVERTER_13
100
AcDbText
  0
MTEXT
  5
307
330
A8
100
AcDbEntity
  8
9_schriftkopf
 62
     2
100
AcDbMText
 10
86.000000005078
 20
42.12499988108208
 30
0.0
 40
2.5
 41
0.0
 71
     5
 72
     1
  1
Datum
  7
CONVERTER_13
 73
     1
 44
1.32052821128451
  0
MTEXT
  5
308
330
A8
100
AcDbEntity
  8
9_schriftkopf
 62
     2
100
AcDbMText
 10
102.9000000050781
 20
42.12499988108208
 30
0.0
 40
2.5
 41
0.0
 71
     5
 72
     1
  1
Name
  7
CONVERTER_13
 73
     1
 44
1.32052821128451
  0
TEXT
  5
309
330
A8
100
AcDbEntity
  8
9_schriftkopf
 62
     2
100
AcDbText
 10
165.1262599075697
 20
56.81249988108208
 30
0.0
 40
2.5
  1
Gewicht:
 41
0.72
  7
CONVERTER_13
100
AcDbText
  0
MTEXT
  5
30B
330
A8
100
AcDbEntity
  8
9_schriftkopf
 62
     2
100
AcDbMText
 10
14.32625990757001
 20
56.81249988108208
 30
0.0
 40
2.5
 41
0.0
 71
     7
 72
     1
  1
Lottmann Fensterb\U+00e4nke GmbH
  7
CONVERTER_16
 73
     1
 44
1.32052821128451
  0
MTEXT
  5
30C
330
A8
100
AcDbEntity
  8
9_schriftkopf
 62
     2
100
AcDbMText
 10
14.32625990757001
 20
53.31249988108208
 30
0.0
 40
2.5
 41
0.0
 71
     7
 72
     1
  1
Eisenstra\U+00dfe 9
  7
CONVERTER_16
 73
     1
 44
1.32052821128451
  0
TEXT
  5
30D
330
A8
100
AcDbEntity
  8
9_schriftkopf
 62
     2
100
AcDbText
 10
14.32625990757001
 20
49.81249988108208
 30
0.0
 40
2.5
  1
4462 Reichraming
 41
0.81
  7
CONVERTER_16
100
AcDbText
  0
TEXT
  5
30E
330
A8
100
AcDbEntity
  8
9_schriftkopf
 62
     2
100
AcDbText
 10
14.32625990757001
 20
46.31249988108208
 30
0.0
 40
2.5
  1
www.helopal.com
 41
0.81
  7
CONVERTER_16
100
AcDbText
  0
MTEXT
  5
310
330
A8
100
AcDbEntity
  8
9_schriftkopf
 62
     2
100
AcDbMText
 10
112.4383269546209
 20
54.47939325727808
 30
0.0
 40
1.75
 41
0.0
 71
     1
 72
     1
  3
Weitergabe sowie Vervielf\U+00e4ltigung dieser Dokumente, Verwertung und Mit-\Pteilung seines Inhalts sind verboten, soweit nicht ausdr\U+00fccklich gestattet. Zuwider-\Phandlungen verpflichten zu Schadenersatz. Alle Rechte f\U+00fcr den\PFall der P
  1
atent-, Gebrauchsmuster- oder Geschmacksmustereintragung vorbehalten.
  7
CONVERTER_17
 73
     1
 44
0.90036014405762
  0
MTEXT
  5
311
330
A8
100
AcDbEntity
  8
9_schriftkopf
 62
     2
100
AcDbMText
 10
17.10000000507799
 20
8.12499988108208
 30
0.0
 40
2.5
 41
0.0
 71
     5
 72
     1
  1
Zust
  7
CONVERTER_13
 73
     1
 44
1.32052821128451
  0
MTEXT
  5
312
330
A8
100
AcDbEntity
  8
0
 62
     2
100
AcDbMText
 10
193.900000005078
 20
12.37499988108208
 30
0.0
 40
2.0
 41
0.0
 71
     5
 72
     1
  1
3
  7
CONVERTER_15
 73
     1
 44
1.0
  0
MTEXT
  5
313
330
A8
100
AcDbEntity
  8
0
 62
     2
100
AcDbMText
 10
193.900000005078
 20
18.74999988108208
 30
0.0
 40
2.5
 41
0.0
 71
     5
 72
     1
  1
1
  7
CONVERTER_15
 73
     1
 44
1.0
  0
MTEXT
  5
314
330
A8
100
AcDbEntity
  8
9_schriftkopf
 62
     2
100
AcDbMText
 10
133.479964419057
 20
8.25175568028611
 30
0.0
 40
2.5
 41
0.0
 71
     4
 72
     1
  1
-
  7
CONVERTER_13
 73
     1
 44
1.32052821128451
  0
TEXT
  5
315
330
A8
100
AcDbEntity
  8
9_schriftkopf
 62
     2
100
AcDbText
 10
95.12500997591499
 20
47.21512710597858
 30
0.0
 40
2.5
  1
-
 41
0.72
  7
CONVERTER_13
100
AcDbText
  0
TEXT
  5
316
330
A8
100
AcDbEntity
  8
9_schriftkopf
 62
     2
100
AcDbText
 10
95.12500997591499
 20
51.34493286845288
 30
0.0
 40
2.5
  1
-
 41
0.72
  7
CONVERTER_13
100
AcDbText
  0
TEXT
  5
317
330
A8
100
AcDbEntity
  8
9_schriftkopf
 62
     2
100
AcDbText
 10
69.12500997591499
 20
51.34493286845288
 30
0.0
 40
2.5
  1
-
 41
0.72
  7
CONVERTER_13
100
AcDbText
  0
TEXT
  5
318
330
A8
100
AcDbEntity
  8
9_schriftkopf
 62
     2
100
AcDbText
 10
180.1093543024593
 20
56.81249988108208
 30
0.0
 40
2.5
  1
-
 41
0.72
  7
CONVERTER_13
100
AcDbText
  0
TEXT
  5
319
330
A8
100
AcDbEntity
  8
9_schriftkopf
 62
     2
100
AcDbText
 10
128.7916231918066
 20
56.81249988108208
 30
0.0
 40
2.5
  1
1:1
 41
0.72
  7
CONVERTER_13
100
AcDbText
  0
MTEXT
  5
31A
330
A8
100
AcDbEntity
  8
9_schriftkopf
 62
     2
100
AcDbMText
 10
86.000000005078
 20
33.62499988108208
 30
0.0
 40
2.5
 41
0.0
 71
     5
 72
     1
  1
-
  7
CONVERTER_13
 73
     1
 44
1.32052821128451
  0
MTEXT
  5
31B
330
A8
100
AcDbEntity
  8
9_schriftkopf
 62
     2
100
AcDbMText
 10
102.9000000050781
 20
33.62499988108208
 30
0.0
 40
2.5
 41
0.0
 71
     5
 72
     1
  1
-
  7
CONVERTER_13
 73
     1
 44
1.32052821128451
  0
MTEXT
  5
31C
330
A8
100
AcDbEntity
  8
9_schriftkopf
 62
     2
100
AcDbMText
 10
86.000000005078
 20
37.87499988108208
 30
0.0
 40
2.5
 41
0.0
 71
     5
 72
     1
  1
03.06.2013
  7
CONVERTER_13
 73
     1
 44
1.32052821128451
  0
MTEXT
  5
31D
330
A8
100
AcDbEntity
  8
9_schriftkopf
 62
     2
100
AcDbMText
 10
102.9000000050781
 20
37.87499988108208
 30
0.0
 40
2.5
 41
0.0
 71
     5
 72
     1
  1
GK
  7
CONVERTER_13
 73
     1
 44
1.32052821128451
  0
MTEXT
  5
31F
330
A8
100
AcDbEntity
  8
9_schriftkopf
 62
     1
100
AcDbMText
 10
149.7000000050781
 20
16.62499988108208
 30
0.0
 40
5.0
 41
0.0
 71
     5
 72
     1
  1
SlideU_Uebersicht_rev01
  7
CONVERTER_18
 73
     1
 44
1.32052821128451
  0
MTEXT
  5
321
330
A8
100
AcDbEntity
  8
9_schriftkopf
 62
     1
100
AcDbMText
 10
115.0000000050781
 20
26.49999988108208
 30
0.0
 40
5.0
 41
0.0
 71
     7
 72
     1
  1
\U+00dcbersicht: Breite Aufsteckwinkel
  7
CONVERTER_19
 73
     1
 44
1.32052821128451
  0
TEXT
  5
322
330
A8
100
AcDbEntity
  8
9_schriftkopf
 62
     1
100
AcDbText
 10
115.0000000050781
 20
35.12499988108208
 30
0.0
 40
5.0
  1
SlidePal U
 41
0.72
  7
CONVERTER_13
100
AcDbText
  0
ENDBLK
  5
AA
330
A8
100
AcDbEntity
  8
0
100
AcDbBlockEnd
  0
BLOCK
  5
F6
330
EE
100
AcDbEntity
  8
0
100
AcDbBlockBegin
  2
*D27
 70
     1
 10
0.0
 20
0.0
 30
0.0
  3
*D27
  1

  0
LINE
  5
EF
330
EE
100
AcDbEntity
  8
1
  6
Continuous
 62
     2
100
AcDbLine
 10
106.1999999992197
 20
235.5141756008739
 30
0.0
 11
112.5749999992197
 21
235.5141756008739
 31
0.0
  0
LINE
  5
F0
330
EE
100
AcDbEntity
  8
1
  6
Continuous
 62
     2
100
AcDbLine
 10
46.19999999921966
 20
235.5141756008739
 30
0.0
 11
106.1999999992197
 21
235.5141756008739
 31
0.0
  0
LINE
  5
F1
330
EE
100
AcDbEntity
  8
1
  6
Continuous
 62
     2
100
AcDbLine
 10
106.1999999992197
 20
238.1393386840285
 30
0.0
 11
106.1999999992197
 21
235.0141756008739
 31
0.0
  0
LINE
  5
F2
330
EE
100
AcDbEntity
  8
1
  6
Continuous
 62
     2
100
AcDbLine
 10
46.19999999921964
 20
238.1393386840277
 30
0.0
 11
46.19999999921964
 21
235.0141756008739
 31
0.0
  0
SOLID
  5
F3
330
EE
100
AcDbEntity
  8
1
 62
     2
100
AcDbTrace
 10
48.44999999921966
 20
235.8103937204455
 30
0.0
 11
48.44999999921966
 21
235.2179574813022
 31
0.0
 12
46.19999999921966
 22
235.5141756008739
 32
0.0
 13
46.19999999921966
 23
235.5141756008739
 33
0.0
  0
SOLID
  5
F4
330
EE
100
AcDbEntity
  8
1
 62
     2
100
AcDbTrace
 10
103.9499999992197
 20
235.2179574813022
 30
0.0
 11
103.9499999992197
 21
235.8103937204455
 31
0.0
 12
106.1999999992197
 22
235.5141756008739
 32
0.0
 13
106.1999999992197
 23
235.5141756008739
 33
0.0
  0
MTEXT
  5
F5
330
EE
100
AcDbEntity
  8
1
 62
     2
100
AcDbMText
 10
108.8249999992197
 20
236.5141756008739
 30
0.0
 40
2.5
 41
0.0
 71
     7
 72
     1
  1
60
  7
CONVERTER_11
 11
0.9999999999970619
 21
2.424068405545306E-6
 31
0.0
 73
     1
 44
0.60024009603842
  0
ENDBLK
  5
F7
330
EE
100
AcDbEntity
  8
0
100
AcDbBlockEnd
  0
BLOCK
  5
101
330
FA
100
AcDbEntity
  8
0
100
AcDbBlockBegin
  2
*D28
 70
     1
 10
0.0
 20
0.0
 30
0.0
  3
*D28
  1

  0
LINE
  5
FB
330
FA
100
AcDbEntity
  8
1
  6
Continuous
 62
     2
100
AcDbLine
 10
48.19999999921966
 20
269.1473704189199
 30
0.0
 11
66.99999999922031
 21
269.1473704189199
 31
0.0
  0
LINE
  5
FC
330
FA
100
AcDbEntity
  8
1
  6
Continuous
 62
     2
100
AcDbLine
 10
66.99999999922031
 20
275.1393386840278
 30
0.0
 11
66.99999999922031
 21
268.6473704189199
 31
0.0
  0
LINE
  5
FD
330
FA
100
AcDbEntity
  8
1
  6
Continuous
 62
     2
100
AcDbLine
 10
48.19999999921965
 20
275.1393386840277
 30
0.0
 11
48.19999999921965
 21
268.6473704189199
 31
0.0
  0
SOLID
  5
FE
330
FA
100
AcDbEntity
  8
1
 62
     2
100
AcDbTrace
 10
50.44999999921966
 20
269.4435885384915
 30
0.0
 11
50.44999999921966
 21
268.8511522993483
 31
0.0
 12
48.19999999921966
 22
269.1473704189199
 32
0.0
 13
48.19999999921966
 23
269.1473704189199
 33
0.0
  0
SOLID
  5
FF
330
FA
100
AcDbEntity
  8
1
 62
     2
100
AcDbTrace
 10
64.74999999922031
 20
268.8511522993483
 30
0.0
 11
64.74999999922031
 21
269.4435885384915
 31
0.0
 12
66.99999999922031
 22
269.1473704189199
 32
0.0
 13
66.99999999922031
 23
269.1473704189199
 33
0.0
  0
MTEXT
  5
100
330
FA
100
AcDbEntity
  8
1
 62
     2
100
AcDbMText
 10
54.56874999921997
 20
270.1473704189199
 30
0.0
 40
2.5
 41
0.0
 71
     7
 72
     1
  1
18.5
  7
CONVERTER_11
 11
0.9999999999970619
 21
2.424068405545306E-6
 31
0.0
 73
     1
 44
0.60024009603842
  0
ENDBLK
  5
102
330
FA
100
AcDbEntity
  8
0
100
AcDbBlockEnd
  0
BLOCK
  5
10C
330
105
100
AcDbEntity
  8
0
100
AcDbBlockBegin
  2
*D29
 70
     1
 10
0.0
 20
0.0
 30
0.0
  3
*D29
  1

  0
LINE
  5
106
330
105
100
AcDbEntity
  8
1
  6
Continuous
 62
     2
100
AcDbLine
 10
44.99999999922032
 20
283.4221156993889
 30
0.0
 11
66.9999999992203
 21
283.4221156993889
 31
0.0
  0
LINE
  5
107
330
105
100
AcDbEntity
  8
1
  6
Continuous
 62
     2
100
AcDbLine
 10
66.9999999992203
 20
276.3393386840278
 30
0.0
 11
66.9999999992203
 21
283.9221156993889
 31
0.0
  0
LINE
  5
108
330
105
100
AcDbEntity
  8
1
  6
Continuous
 62
     2
100
AcDbLine
 10
44.99999999922032
 20
276.1393386840278
 30
0.0
 11
44.99999999922032
 21
283.9221156993889
 31
0.0
  0
SOLID
  5
109
330
105
100
AcDbEntity
  8
1
 62
     2
100
AcDbTrace
 10
47.24999999922032
 20
283.7183338189605
 30
0.0
 11
47.24999999922032
 21
283.1258975798173
 31
0.0
 12
44.99999999922032
 22
283.4221156993889
 32
0.0
 13
44.99999999922032
 23
283.4221156993889
 33
0.0
  0
SOLID
  5
10A
330
105
100
AcDbEntity
  8
1
 62
     2
100
AcDbTrace
 10
64.7499999992203
 20
283.1258975798173
 30
0.0
 11
64.7499999992203
 21
283.7183338189605
 31
0.0
 12
66.9999999992203
 22
283.4221156993889
 32
0.0
 13
66.9999999992203
 23
283.4221156993889
 33
0.0
  0
MTEXT
  5
10B
330
105
100
AcDbEntity
  8
1
 62
     2
100
AcDbMText
 10
54.12499999922031
 20
284.4221156993889
 30
0.0
 40
2.5
 41
0.0
 71
     7
 72
     1
  1
22
  7
CONVERTER_11
 11
0.9999999999970619
 21
2.424068405545306E-6
 31
0.0
 73
     1
 44
0.60024009603842
  0
ENDBLK
  5
10D
330
105
100
AcDbEntity
  8
0
100
AcDbBlockEnd
  0
BLOCK
  5
117
330
110
100
AcDbEntity
  8
0
100
AcDbBlockBegin
  2
*D30
 70
     1
 10
0.0
 20
0.0
 30
0.0
  3
*D30
  1

  0
LINE
  5
111
330
110
100
AcDbEntity
  8
1
  6
Continuous
 62
     2
100
AcDbLine
 10
37.9787615974372
 20
276.3393386840278
 30
0.0
 11
37.9787615974372
 21
238.1393386840278
 31
0.0
  0
LINE
  5
112
330
110
100
AcDbEntity
  8
1
  6
Continuous
 62
     2
100
AcDbLine
 10
46.19999999921965
 20
238.1393386840278
 30
0.0
 11
37.4787615974372
 21
238.1393386840278
 31
0.0
  0
LINE
  5
113
330
110
100
AcDbEntity
  8
1
  6
Continuous
 62
     2
100
AcDbLine
 10
45.19999999922031
 20
276.3393386840278
 30
0.0
 11
37.4787615974372
 21
276.3393386840278
 31
0.0
  0
SOLID
  5
114
330
110
100
AcDbEntity
  8
1
 62
     2
100
AcDbTrace
 10
38.27497971700884
 20
274.0893386840278
 30
0.0
 11
37.68254347786556
 21
274.0893386840278
 31
0.0
 12
37.9787615974372
 22
276.3393386840278
 32
0.0
 13
37.9787615974372
 23
276.3393386840278
 33
0.0
  0
SOLID
  5
115
330
110
100
AcDbEntity
  8
1
 62
     2
100
AcDbTrace
 10
37.68254347786556
 20
240.3893386840278
 30
0.0
 11
38.27497971700884
 21
240.3893386840278
 31
0.0
 12
37.9787615974372
 22
238.1393386840278
 32
0.0
 13
37.9787615974372
 23
238.1393386840278
 33
0.0
  0
MTEXT
  5
116
330
110
100
AcDbEntity
  8
1
 62
     2
100
AcDbMText
 10
36.9787615974372
 20
253.8330886840278
 30
0.0
 40
2.5
 41
0.0
 71
     7
 72
     1
  1
38.2
  7
CONVERTER_11
 11
0.0
 21
1.0
 31
0.0
 73
     1
 44
0.60024009603842
  0
ENDBLK
  5
118
330
110
100
AcDbEntity
  8
0
100
AcDbBlockEnd
  0
BLOCK
  5
160
330
158
100
AcDbEntity
  8
0
100
AcDbBlockBegin
  2
*D31
 70
     1
 10
0.0
 20
0.0
 30
0.0
  3
*D31
  1

  0
LINE
  5
159
330
158
100
AcDbEntity
  8
1
  6
Continuous
 62
     2
100
AcDbLine
 10
106.1999999992197
 20
180.6551221670071
 30
0.0
 11
113.5749999992197
 21
180.6551221670071
 31
0.0
  0
LINE
  5
15A
330
158
100
AcDbEntity
  8
1
  6
Continuous
 62
     2
100
AcDbLine
 10
46.19999999921966
 20
180.6551221670071
 30
0.0
 11
106.1999999992197
 21
180.6551221670071
 31
0.0
  0
LINE
  5
15B
330
158
100
AcDbEntity
  8
1
  6
Continuous
 62
     2
100
AcDbLine
 10
106.1999999992197
 20
183.3393386840287
 30
0.0
 11
106.1999999992197
 21
180.1551221670071
 31
0.0
  0
LINE
  5
15C
330
158
100
AcDbEntity
  8
1
  6
Continuous
 62
     2
100
AcDbLine
 10
46.19999999921966
 20
183.3393386840278
 30
0.0
 11
46.19999999921966
 21
180.1551221670071
 31
0.0
  0
SOLID
  5
15D
330
158
100
AcDbEntity
  8
1
 62
     2
100
AcDbTrace
 10
48.44999999921966
 20
180.9513402865788
 30
0.0
 11
48.44999999921966
 21
180.3589040474355
 31
0.0
 12
46.19999999921966
 22
180.6551221670071
 32
0.0
 13
46.19999999921966
 23
180.6551221670071
 33
0.0
  0
SOLID
  5
15E
330
158
100
AcDbEntity
  8
1
 62
     2
100
AcDbTrace
 10
103.9499999992197
 20
180.3589040474355
 30
0.0
 11
103.9499999992197
 21
180.9513402865788
 31
0.0
 12
106.1999999992197
 22
180.6551221670071
 32
0.0
 13
106.1999999992197
 23
180.6551221670071
 33
0.0
  0
MTEXT
  5
15F
330
158
100
AcDbEntity
  8
1
 62
     2
100
AcDbMText
 10
109.8249999992197
 20
181.6551221670071
 30
0.0
 40
2.5
 41
0.0
 71
     7
 72
     1
  1
60
  7
CONVERTER_11
 11
0.9999999999970619
 21
2.424068405545306E-6
 31
0.0
 73
     1
 44
0.60024009603842
  0
ENDBLK
  5
161
330
158
100
AcDbEntity
  8
0
100
AcDbBlockEnd
  0
BLOCK
  5
16B
330
164
100
AcDbEntity
  8
0
100
AcDbBlockBegin
  2
*D32
 70
     1
 10
0.0
 20
0.0
 30
0.0
  3
*D32
  1

  0
LINE
  5
165
330
164
100
AcDbEntity
  8
1
  6
Continuous
 62
     2
100
AcDbLine
 10
48.19999999921964
 20
213.838432284236
 30
0.0
 11
78.99999999922032
 21
213.838432284236
 31
0.0
  0
LINE
  5
166
330
164
100
AcDbEntity
  8
1
  6
Continuous
 62
     2
100
AcDbLine
 10
78.99999999922032
 20
220.3393386840279
 30
0.0
 11
78.99999999922032
 21
213.338432284236
 31
0.0
  0
LINE
  5
167
330
164
100
AcDbEntity
  8
1
  6
Continuous
 62
     2
100
AcDbLine
 10
48.19999999921964
 20
220.3393386840278
 30
0.0
 11
48.19999999921964
 21
213.338432284236
 31
0.0
  0
SOLID
  5
168
330
164
100
AcDbEntity
  8
1
 62
     2
100
AcDbTrace
 10
50.44999999921964
 20
214.1346504038077
 30
0.0
 11
50.44999999921964
 21
213.5422141646644
 31
0.0
 12
48.19999999921964
 22
213.838432284236
 32
0.0
 13
48.19999999921964
 23
213.838432284236
 33
0.0
  0
SOLID
  5
169
330
164
100
AcDbEntity
  8
1
 62
     2
100
AcDbTrace
 10
76.74999999922032
 20
213.5422141646644
 30
0.0
 11
76.74999999922032
 21
214.1346504038077
 31
0.0
 12
78.99999999922032
 22
213.838432284236
 32
0.0
 13
78.99999999922032
 23
213.838432284236
 33
0.0
  0
MTEXT
  5
16A
330
164
100
AcDbEntity
  8
1
 62
     2
100
AcDbMText
 10
60.19374999921998
 20
214.838432284236
 30
0.0
 40
2.5
 41
0.0
 71
     7
 72
     1
  1
30.5
  7
CONVERTER_11
 11
0.9999999999970619
 21
2.424068405545306E-6
 31
0.0
 73
     1
 44
0.60024009603842
  0
ENDBLK
  5
16C
330
164
100
AcDbEntity
  8
0
100
AcDbBlockEnd
  0
BLOCK
  5
176
330
16F
100
AcDbEntity
  8
0
100
AcDbBlockBegin
  2
*D33
 70
     1
 10
0.0
 20
0.0
 30
0.0
  3
*D33
  1

  0
LINE
  5
170
330
16F
100
AcDbEntity
  8
1
  6
Continuous
 62
     2
100
AcDbLine
 10
44.99999999922032
 20
228.804977909274
 30
0.0
 11
78.99999999922032
 21
228.804977909274
 31
0.0
  0
LINE
  5
171
330
16F
100
AcDbEntity
  8
1
  6
Continuous
 62
     2
100
AcDbLine
 10
78.99999999922032
 20
221.5393386840279
 30
0.0
 11
78.99999999922032
 21
229.304977909274
 31
0.0
  0
LINE
  5
172
330
16F
100
AcDbEntity
  8
1
  6
Continuous
 62
     2
100
AcDbLine
 10
44.99999999922032
 20
221.3393386840279
 30
0.0
 11
44.99999999922032
 21
229.304977909274
 31
0.0
  0
SOLID
  5
173
330
16F
100
AcDbEntity
  8
1
 62
     2
100
AcDbTrace
 10
47.24999999922032
 20
229.1011960288456
 30
0.0
 11
47.24999999922032
 21
228.5087597897023
 31
0.0
 12
44.99999999922032
 22
228.804977909274
 32
0.0
 13
44.99999999922032
 23
228.804977909274
 33
0.0
  0
SOLID
  5
174
330
16F
100
AcDbEntity
  8
1
 62
     2
100
AcDbTrace
 10
76.74999999922032
 20
228.5087597897023
 30
0.0
 11
76.74999999922032
 21
229.1011960288456
 31
0.0
 12
78.99999999922032
 22
228.804977909274
 32
0.0
 13
78.99999999922032
 23
228.804977909274
 33
0.0
  0
MTEXT
  5
175
330
16F
100
AcDbEntity
  8
1
 62
     2
100
AcDbMText
 10
60.12499999922032
 20
229.804977909274
 30
0.0
 40
2.5
 41
0.0
 71
     7
 72
     1
  1
34
  7
CONVERTER_11
 11
0.9999999999970619
 21
2.424068405545306E-6
 31
0.0
 73
     1
 44
0.60024009603842
  0
ENDBLK
  5
177
330
16F
100
AcDbEntity
  8
0
100
AcDbBlockEnd
  0
BLOCK
  5
181
330
17A
100
AcDbEntity
  8
0
100
AcDbBlockBegin
  2
*D34
 70
     1
 10
0.0
 20
0.0
 30
0.0
  3
*D34
  1

  0
LINE
  5
17B
330
17A
100
AcDbEntity
  8
1
  6
Continuous
 62
     2
100
AcDbLine
 10
37.9787615974372
 20
221.5393386840279
 30
0.0
 11
37.9787615974372
 21
183.3393386840278
 31
0.0
  0
LINE
  5
17C
330
17A
100
AcDbEntity
  8
1
  6
Continuous
 62
     2
100
AcDbLine
 10
46.19999999921964
 20
183.3393386840278
 30
0.0
 11
37.4787615974372
 21
183.3393386840278
 31
0.0
  0
LINE
  5
17D
330
17A
100
AcDbEntity
  8
1
  6
Continuous
 62
     2
100
AcDbLine
 10
45.19999999922031
 20
221.5393386840279
 30
0.0
 11
37.4787615974372
 21
221.5393386840279
 31
0.0
  0
SOLID
  5
17E
330
17A
100
AcDbEntity
  8
1
 62
     2
100
AcDbTrace
 10
38.27497971700884
 20
219.2893386840279
 30
0.0
 11
37.68254347786556
 21
219.2893386840279
 31
0.0
 12
37.9787615974372
 22
221.5393386840279
 32
0.0
 13
37.9787615974372
 23
221.5393386840279
 33
0.0
  0
SOLID
  5
17F
330
17A
100
AcDbEntity
  8
1
 62
     2
100
AcDbTrace
 10
37.68254347786556
 20
185.5893386840278
 30
0.0
 11
38.27497971700884
 21
185.5893386840278
 31
0.0
 12
37.9787615974372
 22
183.3393386840278
 32
0.0
 13
37.9787615974372
 23
183.3393386840278
 33
0.0
  0
MTEXT
  5
180
330
17A
100
AcDbEntity
  8
1
 62
     2
100
AcDbMText
 10
36.9787615974372
 20
199.0330886840278
 30
0.0
 40
2.5
 41
0.0
 71
     7
 72
     1
  1
38.2
  7
CONVERTER_11
 11
0.0
 21
1.0
 31
0.0
 73
     1
 44
0.60024009603842
  0
ENDBLK
  5
182
330
17A
100
AcDbEntity
  8
0
100
AcDbBlockEnd
  0
BLOCK
  5
1C9
330
1C2
100
AcDbEntity
  8
0
100
AcDbBlockBegin
  2
*D35
 70
     1
 10
0.0
 20
0.0
 30
0.0
  3
*D35
  1

  0
LINE
  5
1C3
330
1C2
100
AcDbEntity
  8
1
  6
Continuous
 62
     2
100
AcDbLine
 10
37.77876159743715
 20
68.23933868402762
 30
0.0
 11
37.77876159743715
 21
106.4393386840277
 31
0.0
  0
LINE
  5
1C4
330
1C2
100
AcDbEntity
  8
1
  6
Continuous
 62
     2
100
AcDbLine
 10
44.99999999922028
 20
106.4393386840277
 30
0.0
 11
37.27876159743715
 21
106.4393386840277
 31
0.0
  0
LINE
  5
1C5
330
1C2
100
AcDbEntity
  8
1
  6
Continuous
 62
     2
100
AcDbLine
 10
45.9999999992196
 20
68.23933868402762
 30
0.0
 11
37.27876159743715
 21
68.23933868402762
 31
0.0
  0
SOLID
  5
1C6
330
1C2
100
AcDbEntity
  8
1
 62
     2
100
AcDbTrace
 10
37.48254347786551
 20
70.48933868402762
 30
0.0
 11
38.07497971700879
 21
70.48933868402762
 31
0.0
 12
37.77876159743715
 22
68.23933868402762
 32
0.0
 13
37.77876159743715
 23
68.23933868402762
 33
0.0
  0
SOLID
  5
1C7
330
1C2
100
AcDbEntity
  8
1
 62
     2
100
AcDbTrace
 10
38.07497971700879
 20
104.1893386840277
 30
0.0
 11
37.48254347786551
 21
104.1893386840277
 31
0.0
 12
37.77876159743715
 22
106.4393386840277
 32
0.0
 13
37.77876159743715
 23
106.4393386840277
 33
0.0
  0
MTEXT
  5
1C8
330
1C2
100
AcDbEntity
  8
1
 62
     2
100
AcDbMText
 10
36.77876159743715
 20
83.93308868402764
 30
0.0
 40
2.5
 41
0.0
 71
     7
 72
     1
  1
38.2
  7
CONVERTER_11
 11
0.0
 21
1.0
 31
0.0
 73
     1
 44
0.60024009603842
  0
ENDBLK
  5
1CA
330
1C2
100
AcDbEntity
  8
0
100
AcDbBlockEnd
  0
BLOCK
  5
1D4
330
1CD
100
AcDbEntity
  8
0
100
AcDbBlockBegin
  2
*D36
 70
     1
 10
0.0
 20
0.0
 30
0.0
  3
*D36
  1

  0
LINE
  5
1CE
330
1CD
100
AcDbEntity
  8
1
  6
Continuous
 62
     2
100
AcDbLine
 10
44.79999999922029
 20
115.3237606021818
 30
0.0
 11
89.79999999922029
 21
115.3237606021818
 31
0.0
  0
LINE
  5
1CF
330
1CD
100
AcDbEntity
  8
1
  6
Continuous
 62
     2
100
AcDbLine
 10
89.79999999922029
 20
106.4393386840276
 30
0.0
 11
89.79999999922029
 21
115.8237606021818
 31
0.0
  0
LINE
  5
1D0
330
1CD
100
AcDbEntity
  8
1
  6
Continuous
 62
     2
100
AcDbLine
 10
44.79999999922029
 20
106.2393386840277
 30
0.0
 11
44.79999999922029
 21
115.8237606021818
 31
0.0
  0
SOLID
  5
1D1
330
1CD
100
AcDbEntity
  8
1
 62
     2
100
AcDbTrace
 10
47.04999999922029
 20
115.6199787217534
 30
0.0
 11
47.04999999922029
 21
115.0275424826102
 31
0.0
 12
44.79999999922029
 22
115.3237606021818
 32
0.0
 13
44.79999999922029
 23
115.3237606021818
 33
0.0
  0
SOLID
  5
1D2
330
1CD
100
AcDbEntity
  8
1
 62
     2
100
AcDbTrace
 10
87.54999999922029
 20
115.0275424826102
 30
0.0
 11
87.54999999922029
 21
115.6199787217534
 31
0.0
 12
89.79999999922029
 22
115.3237606021818
 32
0.0
 13
89.79999999922029
 23
115.3237606021818
 33
0.0
  0
MTEXT
  5
1D3
330
1CD
100
AcDbEntity
  8
1
 62
     2
100
AcDbMText
 10
65.42499999922029
 20
116.3237606021818
 30
0.0
 40
2.5
 41
0.0
 71
     7
 72
     1
  1
45
  7
CONVERTER_11
 11
0.9999999999970619
 21
2.424068405545306E-6
 31
0.0
 73
     1
 44
0.60024009603842
  0
ENDBLK
  5
1D5
330
1CD
100
AcDbEntity
  8
0
100
AcDbBlockEnd
  0
BLOCK
  5
1DF
330
1D8
100
AcDbEntity
  8
0
100
AcDbBlockBegin
  2
*D37
 70
     1
 10
0.0
 20
0.0
 30
0.0
  3
*D37
  1

  0
LINE
  5
1D9
330
1D8
100
AcDbEntity
  8
1
  6
Continuous
 62
     2
100
AcDbLine
 10
47.9999999992196
 20
98.6314413394118
 30
0.0
 11
89.79999999922029
 21
98.6314413394118
 31
0.0
  0
LINE
  5
1DA
330
1D8
100
AcDbEntity
  8
1
  6
Continuous
 62
     2
100
AcDbLine
 10
89.79999999922029
 20
105.2393386840277
 30
0.0
 11
89.79999999922029
 21
98.1314413394118
 31
0.0
  0
LINE
  5
1DB
330
1D8
100
AcDbEntity
  8
1
  6
Continuous
 62
     2
100
AcDbLine
 10
47.9999999992196
 20
105.2393386840275
 30
0.0
 11
47.9999999992196
 21
98.1314413394118
 31
0.0
  0
SOLID
  5
1DC
330
1D8
100
AcDbEntity
  8
1
 62
     2
100
AcDbTrace
 10
50.2499999992196
 20
98.92765945898343
 30
0.0
 11
50.2499999992196
 21
98.33522321984016
 31
0.0
 12
47.9999999992196
 22
98.6314413394118
 32
0.0
 13
47.9999999992196
 23
98.6314413394118
 33
0.0
  0
SOLID
  5
1DD
330
1D8
100
AcDbEntity
  8
1
 62
     2
100
AcDbTrace
 10
87.54999999922029
 20
98.33522321984016
 30
0.0
 11
87.54999999922029
 21
98.92765945898343
 31
0.0
 12
89.79999999922029
 22
98.6314413394118
 32
0.0
 13
89.79999999922029
 23
98.6314413394118
 33
0.0
  0
MTEXT
  5
1DE
330
1D8
100
AcDbEntity
  8
1
 62
     2
100
AcDbMText
 10
65.86874999921997
 20
99.6314413394118
 30
0.0
 40
2.5
 41
0.0
 71
     7
 72
     1
  1
41.5
  7
CONVERTER_11
 11
0.9999999999970619
 21
2.424068405545306E-6
 31
0.0
 73
     1
 44
0.60024009603842
  0
ENDBLK
  5
1E0
330
1D8
100
AcDbEntity
  8
0
100
AcDbBlockEnd
  0
BLOCK
  5
1EB
330
1E3
100
AcDbEntity
  8
0
100
AcDbBlockBegin
  2
*D38
 70
     1
 10
0.0
 20
0.0
 30
0.0
  3
*D38
  1

  0
LINE
  5
1E4
330
1E3
100
AcDbEntity
  8
1
  6
Continuous
 62
     2
100
AcDbLine
 10
105.9999999992196
 20
65.29067772256153
 30
0.0
 11
113.6749999992196
 21
65.29067772256153
 31
0.0
  0
LINE
  5
1E5
330
1E3
100
AcDbEntity
  8
1
  6
Continuous
 62
     2
100
AcDbLine
 10
45.99999999921958
 20
65.29067772256153
 30
0.0
 11
105.9999999992196
 21
65.29067772256153
 31
0.0
  0
LINE
  5
1E6
330
1E3
100
AcDbEntity
  8
1
  6
Continuous
 62
     2
100
AcDbLine
 10
105.9999999992196
 20
68.23933868402845
 30
0.0
 11
105.9999999992196
 21
64.79067772256153
 31
0.0
  0
LINE
  5
1E7
330
1E3
100
AcDbEntity
  8
1
  6
Continuous
 62
     2
100
AcDbLine
 10
45.99999999921958
 20
68.23933868402763
 30
0.0
 11
45.99999999921958
 21
64.79067772256153
 31
0.0
  0
SOLID
  5
1E8
330
1E3
100
AcDbEntity
  8
1
 62
     2
100
AcDbTrace
 10
48.24999999921958
 20
65.58689584213316
 30
0.0
 11
48.24999999921958
 21
64.99445960298989
 31
0.0
 12
45.99999999921958
 22
65.29067772256153
 32
0.0
 13
45.99999999921958
 23
65.29067772256153
 33
0.0
  0
SOLID
  5
1E9
330
1E3
100
AcDbEntity
  8
1
 62
     2
100
AcDbTrace
 10
103.7499999992196
 20
64.99445960298989
 30
0.0
 11
103.7499999992196
 21
65.58689584213316
 31
0.0
 12
105.9999999992196
 22
65.29067772256153
 32
0.0
 13
105.9999999992196
 23
65.29067772256153
 33
0.0
  0
MTEXT
  5
1EA
330
1E3
100
AcDbEntity
  8
1
 62
     2
100
AcDbMText
 10
109.9249999992196
 20
66.29067772256153
 30
0.0
 40
2.5
 41
0.0
 71
     7
 72
     1
  1
60
  7
CONVERTER_11
 11
0.9999999999970619
 21
2.424068405545306E-6
 31
0.0
 73
     1
 44
0.60024009603842
  0
ENDBLK
  5
1EC
330
1E3
100
AcDbEntity
  8
0
100
AcDbBlockEnd
  0
BLOCK
  5
254
330
24C
100
AcDbEntity
  8
0
100
AcDbBlockBegin
  2
*D39
 70
     1
 10
0.0
 20
0.0
 30
0.0
  3
*D39
  1

  0
LINE
  5
24D
330
24C
100
AcDbEntity
  8
1
  6
Continuous
 62
     2
100
AcDbLine
 10
105.6999999992198
 20
124.888156713999
 30
0.0
 11
113.485189515073
 21
124.888156713999
 31
0.0
  0
LINE
  5
24E
330
24C
100
AcDbEntity
  8
1
  6
Continuous
 62
     2
100
AcDbLine
 10
45.69999999921973
 20
124.888156713999
 30
0.0
 11
105.6999999992198
 21
124.888156713999
 31
0.0
  0
LINE
  5
24F
330
24C
100
AcDbEntity
  8
1
  6
Continuous
 62
     2
100
AcDbLine
 10
105.6999999992198
 20
127.9393386840284
 30
0.0
 11
105.6999999992198
 21
124.388156713999
 31
0.0
  0
LINE
  5
250
330
24C
100
AcDbEntity
  8
1
  6
Continuous
 62
     2
100
AcDbLine
 10
45.69999999921973
 20
127.9393386840276
 30
0.0
 11
45.69999999921973
 21
124.388156713999
 31
0.0
  0
SOLID
  5
251
330
24C
100
AcDbEntity
  8
1
 62
     2
100
AcDbTrace
 10
47.94999999921973
 20
125.1843748335706
 30
0.0
 11
47.94999999921973
 21
124.5919385944274
 31
0.0
 12
45.69999999921973
 22
124.888156713999
 32
0.0
 13
45.69999999921973
 23
124.888156713999
 33
0.0
  0
SOLID
  5
252
330
24C
100
AcDbEntity
  8
1
 62
     2
100
AcDbTrace
 10
103.4499999992198
 20
124.5919385944274
 30
0.0
 11
103.4499999992198
 21
125.1843748335706
 31
0.0
 12
105.6999999992198
 22
124.888156713999
 32
0.0
 13
105.6999999992198
 23
124.888156713999
 33
0.0
  0
MTEXT
  5
253
330
24C
100
AcDbEntity
  8
1
 62
     2
100
AcDbMText
 10
109.735189515073
 20
125.888156713999
 30
0.0
 40
2.5
 41
0.0
 71
     7
 72
     1
  1
60
  7
CONVERTER_11
 11
0.9999999999970619
 21
2.424068405545306E-6
 31
0.0
 73
     1
 44
0.60024009603842
  0
ENDBLK
  5
255
330
24C
100
AcDbEntity
  8
0
100
AcDbBlockEnd
  0
BLOCK
  5
25F
330
258
100
AcDbEntity
  8
0
100
AcDbBlockBegin
  2
*D40
 70
     1
 10
0.0
 20
0.0
 30
0.0
  3
*D40
  1

  0
LINE
  5
259
330
258
100
AcDbEntity
  8
1
  6
Continuous
 62
     2
100
AcDbLine
 10
38.77648592078117
 20
166.1393386840276
 30
0.0
 11
38.77648592078117
 21
127.9393386840276
 31
0.0
  0
LINE
  5
25A
330
258
100
AcDbEntity
  8
1
  6
Continuous
 62
     2
100
AcDbLine
 10
45.6999999992197
 20
127.9393386840276
 30
0.0
 11
38.27648592078117
 21
127.9393386840276
 31
0.0
  0
LINE
  5
25B
330
258
100
AcDbEntity
  8
1
  6
Continuous
 62
     2
100
AcDbLine
 10
44.69999999922038
 20
166.1393386840276
 30
0.0
 11
38.27648592078117
 21
166.1393386840276
 31
0.0
  0
SOLID
  5
25C
330
258
100
AcDbEntity
  8
1
 62
     2
100
AcDbTrace
 10
39.07270404035281
 20
163.8893386840276
 30
0.0
 11
38.48026780120953
 21
163.8893386840276
 31
0.0
 12
38.77648592078117
 22
166.1393386840276
 32
0.0
 13
38.77648592078117
 23
166.1393386840276
 33
0.0
  0
SOLID
  5
25D
330
258
100
AcDbEntity
  8
1
 62
     2
100
AcDbTrace
 10
38.48026780120953
 20
130.1893386840276
 30
0.0
 11
39.07270404035281
 21
130.1893386840276
 31
0.0
 12
38.77648592078117
 22
127.9393386840276
 32
0.0
 13
38.77648592078117
 23
127.9393386840276
 33
0.0
  0
MTEXT
  5
25E
330
258
100
AcDbEntity
  8
1
 62
     2
100
AcDbMText
 10
37.77648592078117
 20
143.6330886840276
 30
0.0
 40
2.5
 41
0.0
 71
     7
 72
     1
  1
38.2
  7
CONVERTER_11
 11
0.0
 21
1.0
 31
0.0
 73
     1
 44
0.60024009603842
  0
ENDBLK
  5
260
330
258
100
AcDbEntity
  8
0
100
AcDbBlockEnd
  0
BLOCK
  5
26A
330
263
100
AcDbEntity
  8
0
100
AcDbBlockBegin
  2
*D41
 70
     1
 10
0.0
 20
0.0
 30
0.0
  3
*D41
  1

  0
LINE
  5
264
330
263
100
AcDbEntity
  8
1
  6
Continuous
 62
     2
100
AcDbLine
 10
84.49999999922045
 20
158.699348375228
 30
0.0
 11
47.6999999992197
 21
158.699348375228
 31
0.0
  0
LINE
  5
265
330
263
100
AcDbEntity
  8
1
  6
Continuous
 62
     2
100
AcDbLine
 10
47.6999999992197
 20
164.9393386840275
 30
0.0
 11
47.6999999992197
 21
158.199348375228
 31
0.0
  0
LINE
  5
266
330
263
100
AcDbEntity
  8
1
  6
Continuous
 62
     2
100
AcDbLine
 10
84.49999999922045
 20
164.9393386840276
 30
0.0
 11
84.49999999922045
 21
158.199348375228
 31
0.0
  0
SOLID
  5
267
330
263
100
AcDbEntity
  8
1
 62
     2
100
AcDbTrace
 10
82.24999999922045
 20
158.4031302556564
 30
0.0
 11
82.24999999922045
 21
158.9955664947996
 31
0.0
 12
84.49999999922045
 22
158.699348375228
 32
0.0
 13
84.49999999922045
 23
158.699348375228
 33
0.0
  0
SOLID
  5
268
330
263
100
AcDbEntity
  8
1
 62
     2
100
AcDbTrace
 10
49.9499999992197
 20
158.9955664947996
 30
0.0
 11
49.9499999992197
 21
158.4031302556564
 31
0.0
 12
47.6999999992197
 22
158.699348375228
 32
0.0
 13
47.6999999992197
 23
158.699348375228
 33
0.0
  0
MTEXT
  5
269
330
263
100
AcDbEntity
  8
1
 62
     2
100
AcDbMText
 10
62.69374999922007
 20
159.699348375228
 30
0.0
 40
2.5
 41
0.0
 71
     7
 72
     1
  1
36.5
  7
CONVERTER_11
 11
0.9999999999970619
 21
2.424068405545306E-6
 31
0.0
 73
     1
 44
0.60024009603842
  0
ENDBLK
  5
26B
330
263
100
AcDbEntity
  8
0
100
AcDbBlockEnd
  0
BLOCK
  5
275
330
26E
100
AcDbEntity
  8
0
100
AcDbBlockBegin
  2
*D42
 70
     1
 10
0.0
 20
0.0
 30
0.0
  3
*D42
  1

  0
LINE
  5
26F
330
26E
100
AcDbEntity
  8
1
  6
Continuous
 62
     2
100
AcDbLine
 10
44.4999999992204
 20
170.906413633887
 30
0.0
 11
84.49999999922045
 21
170.906413633887
 31
0.0
  0
LINE
  5
270
330
26E
100
AcDbEntity
  8
1
  6
Continuous
 62
     2
100
AcDbLine
 10
84.49999999922045
 20
166.1393386840276
 30
0.0
 11
84.49999999922045
 21
171.406413633887
 31
0.0
  0
LINE
  5
271
330
26E
100
AcDbEntity
  8
1
  6
Continuous
 62
     2
100
AcDbLine
 10
44.4999999992204
 20
165.9393386840276
 30
0.0
 11
44.4999999992204
 21
171.406413633887
 31
0.0
  0
SOLID
  5
272
330
26E
100
AcDbEntity
  8
1
 62
     2
100
AcDbTrace
 10
46.7499999992204
 20
171.2026317534587
 30
0.0
 11
46.7499999992204
 21
170.6101955143154
 31
0.0
 12
44.4999999992204
 22
170.906413633887
 32
0.0
 13
44.4999999992204
 23
170.906413633887
 33
0.0
  0
SOLID
  5
273
330
26E
100
AcDbEntity
  8
1
 62
     2
100
AcDbTrace
 10
82.24999999922045
 20
170.6101955143154
 30
0.0
 11
82.24999999922045
 21
171.2026317534587
 31
0.0
 12
84.49999999922045
 22
170.906413633887
 32
0.0
 13
84.49999999922045
 23
170.906413633887
 33
0.0
  0
MTEXT
  5
274
330
26E
100
AcDbEntity
  8
1
 62
     2
100
AcDbMText
 10
62.62499999922042
 20
171.906413633887
 30
0.0
 40
2.5
 41
0.0
 71
     7
 72
     1
  1
40
  7
CONVERTER_11
 11
0.9999999999970619
 21
2.424068405545306E-6
 31
0.0
 73
     1
 44
0.60024009603842
  0
ENDBLK
  5
276
330
26E
100
AcDbEntity
  8
0
100
AcDbBlockEnd
  0
ENDSEC
  0
SECTION
  2
ENTITIES
  0
INSERT
  5
AB
330
1F
100
AcDbEntity
  8
0
100
AcDbBlockReference
  2
Std_SlidePal_U22
 10
76.19999999999999
 20
250.8
 30
0.0
  0
INSERT
  5
AC
330
1F
100
AcDbEntity
  8
0
100
AcDbBlockReference
  2
Std_SlidePal_U34
 10
76.19999999999999
 20
196.0
 30
0.0
  0
INSERT
  5
AD
330
1F
100
AcDbEntity
  8
0
100
AcDbBlockReference
  2
Std_SlidePal_U45
 10
426.0
 20
80.9
 30
0.0
  0
INSERT
  5
AE
330
1F
100
AcDbEntity
  8
0
100
AcDbBlockReference
  2
Vordans1
 10
425.7000000000001
 20
140.6
 30
0.0
  0
INSERT
  5
AF
330
1F
100
AcDbEntity
  8
0
100
AcDbBlockReference
  2
A4_Hoch__20
 10
0.0
 20
0.0
 30
0.0
  0
ENDSEC
  0
SECTION
  2
OBJECTS
  0
DICTIONARY
  5
C
330
0
100
AcDbDictionary
281
     1
  3
ACAD_GROUP
350
D
  3
ACAD_IMAGE_DICT
350
2E3
  3
ACAD_LAYOUT
350
1A
  3
ACAD_MATERIAL
350
3B
  3
ACAD_MLEADERSTYLE
350
325
  3
ACAD_MLINESTYLE
350
17
  3
ACAD_PLOTSETTINGS
350
19
  3
ACAD_PLOTSTYLENAME
350
E
  3
ACAD_VISUALSTYLE
350
2A
  3
AcDbVariableDictionary
350
323
  0
IMAGEDEF_REACTOR
  5
2E6
330
2E5
100
AcDbRasterImageDefReactor
 90
        2
330
2E5
  0
DICTIONARY
  5
D
102
{ACAD_REACTORS
330
C
102
}
330
C
100
AcDbDictionary
281
     1
  0
DICTIONARY
  5
2E3
102
{ACAD_REACTORS
330
C
102
}
330
C
100
AcDbDictionary
281
     1
  3
HELONEU.tif
350
2E4
  0
DICTIONARY
  5
1A
102
{ACAD_REACTORS
330
C
102
}
330
C
100
AcDbDictionary
281
     1
  3
Layout1
350
1E
  3
Layout2
350
26
  3
Model
350
22
  0
DICTIONARY
  5
3B
102
{ACAD_REACTORS
330
C
102
}
330
C
100
AcDbDictionary
281
     1
  3
ByBlock
350
3D
  3
ByLayer
350
3C
  3
Global
350
3E
  0
DICTIONARY
  5
325
102
{ACAD_REACTORS
330
C
102
}
330
C
100
AcDbDictionary
281
     1
  0
DICTIONARY
  5
17
102
{ACAD_REACTORS
330
C
102
}
330
C
100
AcDbDictionary
281
     1
  3
Standard
350
18
  0
DICTIONARY
  5
19
102
{ACAD_REACTORS
330
C
102
}
330
C
100
AcDbDictionary
281
     1
  0
ACDBDICTIONARYWDFLT
  5
E
102
{ACAD_REACTORS
330
C
102
}
330
C
100
AcDbDictionary
281
     1
  3
Normal
350
F
100
AcDbDictionaryWithDefault
340
F
  0
DICTIONARY
  5
2A
102
{ACAD_REACTORS
330
C
102
}
330
C
100
AcDbDictionary
281
     1
  3
2dWireframe
350
2F
  3
3D Hidden
350
31
  3
3dWireframe
350
30
  3
Basic
350
32
  3
Brighten
350
36
  3
ColorChange
350
3A
  3
Conceptual
350
34
  3
Dim
350
35
  3
Facepattern
350
39
  3
Flat
350
2B
  3
FlatWithEdges
350
2C
  3
Gouraud
350
2D
  3
GouraudWithEdges
350
2E
  3
Linepattern
350
38
  3
Realistic
350
33
  3
Thicken
350
37
  0
DICTIONARY
  5
323
102
{ACAD_REACTORS
330
C
102
}
330
C
100
AcDbDictionary
281
     1
  3
DIMASSOC
350
326
  3
HIDETEXT
350
327
  0
IMAGEDEF
  5
2E4
102
{ACAD_REACTORS
330
2E3
330
2E6
102
}
330
2E3
100
AcDbRasterImageDef
 90
        0
  1
.HELONEU.tif
 10
1435.0
 20
736.0
 11
0.1693333333333333
 21
0.1693333333333333
280
     1
281
     1
  0
LAYOUT
  5
1E
102
{ACAD_REACTORS
330
1A
102
}
330
1A
100
AcDbPlotSettings
  1

  2
none_device
  4

  6

 40
0.0
 41
0.0
 42
0.0
 43
0.0
 44
0.0
 45
0.0
 46
0.0
 47
0.0
 48
0.0
 49
0.0
140
0.0
141
0.0
142
1.0
143
1.0
 70
   688
 72
     0
 73
     0
 74
     5
  7

 75
    16
147
1.0
148
0.0
149
0.0
100
AcDbLayout
  1
Layout1
 70
     1
 71
     1
 10
0.0
 20
0.0
 11
12.0
 21
9.0
 12
0.0
 22
0.0
 32
0.0
 14
1.00000000000000E+20
 24
1.00000000000000E+20
 34
1.00000000000000E+20
 15
-1.00000000000000E+20
 25
-1.00000000000000E+20
 35
-1.00000000000000E+20
146
0.0
 13
0.0
 23
0.0
 33
0.0
 16
1.0
 26
0.0
 36
0.0
 17
0.0
 27
1.0
 37
0.0
 76
     0
330
1B
  0
LAYOUT
  5
26
102
{ACAD_REACTORS
330
1A
102
}
330
1A
100
AcDbPlotSettings
  1

  2
none_device
  4

  6

 40
0.0
 41
0.0
 42
0.0
 43
0.0
 44
0.0
 45
0.0
 46
0.0
 47
0.0
 48
0.0
 49
0.0
140
0.0
141
0.0
142
1.0
143
1.0
 70
   688
 72
     0
 73
     0
 74
     5
  7

 75
    16
147
1.0
148
0.0
149
0.0
100
AcDbLayout
  1
Layout2
 70
     1
 71
     2
 10
0.0
 20
0.0
 11
0.0
 21
0.0
 12
0.0
 22
0.0
 32
0.0
 14
0.0
 24
0.0
 34
0.0
 15
0.0
 25
0.0
 35
0.0
146
0.0
 13
0.0
 23
0.0
 33
0.0
 16
1.0
 26
0.0
 36
0.0
 17
0.0
 27
1.0
 37
0.0
 76
     0
330
23
  0
LAYOUT
  5
22
102
{ACAD_REACTORS
330
1A
102
}
330
1A
100
AcDbPlotSettings
  1

  2
none_device
  4

  6

 40
0.0
 41
0.0
 42
0.0
 43
0.0
 44
0.0
 45
0.0
 46
0.0
 47
0.0
 48
0.0
 49
0.0
140
0.0
141
0.0
142
1.0
143
1.0
 70
  1712
 72
     0
 73
     0
 74
     0
  7

 75
     0
147
1.0
148
0.0
149
0.0
100
AcDbLayout
  1
Model
 70
     1
 71
     0
 10
0.0
 20
0.0
 11
12.0
 21
9.0
 12
0.0
 22
0.0
 32
0.0
 14
10.2000000050777
 24
2.99999988108208
 34
0.0
 15
200.4000000050782
 25
288.399999881082
 35
0.0
146
0.0
 13
0.0
 23
0.0
 33
0.0
 16
1.0
 26
0.0
 36
0.0
 17
0.0
 27
1.0
 37
0.0
 76
     0
330
1F
331
29
  0
MATERIAL
  5
3D
102
{ACAD_REACTORS
330
3B
102
}
102
{ACAD_XDICTIONARY
360
34A
102
}
330
3B
100
AcDbMaterial
  1
ByBlock
  0
MATERIAL
  5
3C
102
{ACAD_REACTORS
330
3B
102
}
102
{ACAD_XDICTIONARY
360
348
102
}
330
3B
100
AcDbMaterial
  1
ByLayer
  0
MATERIAL
  5
3E
102
{ACAD_REACTORS
330
3B
102
}
102
{ACAD_XDICTIONARY
360
34C
102
}
330
3B
100
AcDbMaterial
  1
Global
  0
MLINESTYLE
  5
18
102
{ACAD_REACTORS
330
17
102
}
330
17
100
AcDbMlineStyle
  2
Standard
 70
     0
  3

 62
   256
 51
90.0
 52
90.0
 71
     2
 49
0.5
 62
   256
  6
BYLAYER
 49
-0.5
 62
   256
  6
BYLAYER
  0
ACDBPLACEHOLDER
  5
F
102
{ACAD_REACTORS
330
E
102
}
330
E
  0
VISUALSTYLE
  5
2F
102
{ACAD_REACTORS
330
2A
102
}
102
{ACAD_XDICTIONARY
360
330
102
}
330
2A
100
AcDbVisualStyle
  2
2dWireframe
 70
     4
 71
     0
 72
     2
 73
     0
 90
        0
 40
-0.6
 41
-30.0
 62
     5
 63
     7
 74
     1
 91
        4
 64
     7
 65
   257
 75
     1
175
     1
 42
1.0
 92
        0
 66
   257
 43
1.0
 76
     1
 77
     6
 78
     2
 67
     7
 79
     5
170
     0
171
     0
290
     0
174
     0
 93
        1
 44
0.0
173
     0
291
     0
 45
0.0
1001
ACAD
1000
AcDbSavedByObjectVersion
1070
     0
  0
VISUALSTYLE
  5
31
102
{ACAD_REACTORS
330
2A
102
}
102
{ACAD_XDICTIONARY
360
334
102
}
330
2A
100
AcDbVisualStyle
  2
3D Hidden
 70
     6
 71
     1
 72
     2
 73
     2
 90
        0
 40
-0.6
 41
-30.0
 62
     5
 63
     7
 74
     2
 91
        2
 64
     7
 65
   257
 75
     2
175
     1
 42
40.0
 92
        0
 66
   257
 43
1.0
 76
     1
 77
     6
 78
     2
 67
     7
 79
     3
170
     0
171
     0
290
     0
174
     0
 93
        1
 44
0.0
173
     0
291
     0
 45
0.0
1001
ACAD
1000
AcDbSavedByObjectVersion
1070
     0
  0
VISUALSTYLE
  5
30
102
{ACAD_REACTORS
330
2A
102
}
102
{ACAD_XDICTIONARY
360
332
102
}
330
2A
100
AcDbVisualStyle
  2
3dWireframe
 70
     5
 71
     0
 72
     2
 73
     0
 90
        0
 40
-0.6
 41
-30.0
 62
     5
 63
     7
 74
     1
 91
        4
 64
     7
 65
   257
 75
     1
175
     1
 42
1.0
 92
        0
 66
   257
 43
1.0
 76
     1
 77
     6
 78
     2
 67
     7
 79
     5
170
     0
171
     0
290
     0
174
     0
 93
        1
 44
0.0
173
     0
291
     0
 45
0.0
1001
ACAD
1000
AcDbSavedByObjectVersion
1070
     0
  0
VISUALSTYLE
  5
32
102
{ACAD_REACTORS
330
2A
102
}
102
{ACAD_XDICTIONARY
360
336
102
}
330
2A
100
AcDbVisualStyle
  2
Basic
 70
     7
 71
     1
 72
     0
 73
     1
 90
        0
 40
-0.6
 41
-30.0
 62
     5
 63
     7
 74
     0
 91
        4
 64
     7
 65
   257
 75
     1
175
     1
 42
1.0
 92
        8
 66
     7
 43
1.0
 76
     1
 77
     6
 78
     2
 67
     7
 79
     5
170
     0
171
     0
290
     0
174
     0
 93
        1
 44
0.0
173
     0
291
     1
 45
0.0
1001
ACAD
1000
AcDbSavedByObjectVersion
1070
     0
  0
VISUALSTYLE
  5
36
102
{ACAD_REACTORS
330
2A
102
}
102
{ACAD_XDICTIONARY
360
33E
102
}
330
2A
100
AcDbVisualStyle
  2
Brighten
 70
    12
 71
     2
 72
     2
 73
     0
 90
        0
 40
-0.6
 41
-30.0
 62
     5
 63
     7
 74
     1
 91
        4
 64
     7
 65
   257
 75
     1
175
     1
 42
1.0
 92
        8
 66
     7
 43
1.0
 76
     1
 77
     6
 78
     2
 67
     7
 79
     5
170
     0
171
     0
290
     0
174
     0
 93
        1
 44
50.0
173
     0
291
     1
 45
0.0
1001
ACAD
1000
AcDbSavedByObjectVersion
1070
     0
  0
VISUALSTYLE
  5
3A
102
{ACAD_REACTORS
330
2A
102
}
102
{ACAD_XDICTIONARY
360
346
102
}
330
2A
100
AcDbVisualStyle
  2
ColorChange
 70
    16
 71
     2
 72
     2
 73
     3
 90
        0
 40
-0.6
 41
-30.0
 62
     5
 63
     8
 74
     1
 91
        4
 64
     7
 65
   257
 75
     1
175
     1
 42
1.0
 92
        8
 66
     8
 43
1.0
 76
     1
 77
     6
 78
     2
 67
     7
 79
     5
170
     0
171
     0
290
     0
174
     0
 93
        1
 44
0.0
173
     0
291
     1
 45
0.0
1001
ACAD
1000
AcDbSavedByObjectVersion
1070
     0
  0
VISUALSTYLE
  5
34
102
{ACAD_REACTORS
330
2A
102
}
102
{ACAD_XDICTIONARY
360
33A
102
}
330
2A
100
AcDbVisualStyle
  2
Conceptual
 70
     9
 71
     3
 72
     2
 73
     0
 90
        0
 40
-0.6
 41
-30.0
 62
     5
 63
     7
 74
     2
 91
        2
 64
     7
 65
   257
 75
     1
175
     1
 42
40.0
 92
        8
 66
     7
 43
1.0
 76
     1
 77
     6
 78
     2
 67
     7
 79
     3
170
     0
171
     0
290
     0
174
     0
 93
        1
 44
0.0
173
     0
291
     0
 45
0.0
1001
ACAD
1000
AcDbSavedByObjectVersion
1070
     0
  0
VISUALSTYLE
  5
35
102
{ACAD_REACTORS
330
2A
102
}
102
{ACAD_XDICTIONARY
360
33C
102
}
330
2A
100
AcDbVisualStyle
  2
Dim
 70
    11
 71
     2
 72
     2
 73
     0
 90
        0
 40
-0.6
 41
-30.0
 62
     5
 63
     7
 74
     1
 91
        4
 64
     7
 65
   257
 75
     1
175
     1
 42
1.0
 92
        8
 66
     7
 43
1.0
 76
     1
 77
     6
 78
     2
 67
     7
 79
     5
170
     0
171
     0
290
     0
174
     0
 93
        1
 44
-50.0
173
     0
291
     1
 45
0.0
1001
ACAD
1000
AcDbSavedByObjectVersion
1070
     0
  0
VISUALSTYLE
  5
39
102
{ACAD_REACTORS
330
2A
102
}
102
{ACAD_XDICTIONARY
360
344
102
}
330
2A
100
AcDbVisualStyle
  2
Facepattern
 70
    15
 71
     2
 72
     2
 73
     0
 90
        0
 40
-0.6
 41
-30.0
 62
     5
 63
     7
 74
     1
 91
        4
 64
     7
 65
   257
 75
     1
175
     1
 42
1.0
 92
        8
 66
     7
 43
1.0
 76
     1
 77
     6
 78
     2
 67
     7
 79
     5
170
     0
171
     0
290
     0
174
     0
 93
        1
 44
0.0
173
     0
291
     1
 45
0.0
1001
ACAD
1000
AcDbSavedByObjectVersion
1070
     0
  0
VISUALSTYLE
  5
2B
102
{ACAD_REACTORS
330
2A
102
}
102
{ACAD_XDICTIONARY
360
328
102
}
330
2A
100
AcDbVisualStyle
  2
Flat
 70
     0
 71
     2
 72
     1
 73
     1
 90
        2
 40
-0.6
 41
30.0
 62
     5
 63
     7
 74
     0
 91
        4
 64
     7
 65
   257
 75
     1
175
     1
 42
1.0
 92
        8
 66
     7
 43
1.0
 76
     1
 77
     6
 78
     2
 67
     7
 79
     5
170
     0
171
     0
290
     0
174
     0
 93
       13
 44
0.0
173
     0
291
     1
 45
0.0
1001
ACAD
1000
AcDbSavedByObjectVersion
1070
     0
  0
VISUALSTYLE
  5
2C
102
{ACAD_REACTORS
330
2A
102
}
102
{ACAD_XDICTIONARY
360
32A
102
}
330
2A
100
AcDbVisualStyle
  2
FlatWithEdges
 70
     1
 71
     2
 72
     1
 73
     1
 90
        2
 40
-0.6
 41
30.0
 62
     5
 63
     7
 74
     1
 91
        4
 64
     7
 65
   257
 75
     1
175
     1
 42
1.0
 92
        0
 66
   257
 43
1.0
 76
     1
 77
     6
 78
     2
 67
     7
 79
     5
170
     0
171
     0
290
     0
174
     0
 93
       13
 44
0.0
173
     0
291
     1
 45
0.0
1001
ACAD
1000
AcDbSavedByObjectVersion
1070
     0
  0
VISUALSTYLE
  5
2D
102
{ACAD_REACTORS
330
2A
102
}
102
{ACAD_XDICTIONARY
360
32C
102
}
330
2A
100
AcDbVisualStyle
  2
Gouraud
 70
     2
 71
     2
 72
     2
 73
     1
 90
        2
 40
-0.6
 41
30.0
 62
     5
 63
     7
 74
     0
 91
        4
 64
     7
 65
   257
 75
     1
175
     1
 42
1.0
 92
        0
 66
     7
 43
1.0
 76
     1
 77
     6
 78
     2
 67
     7
 79
     5
170
     0
171
     0
290
     0
174
     0
 93
       13
 44
0.0
173
     0
291
     1
 45
0.0
1001
ACAD
1000
AcDbSavedByObjectVersion
1070
     0
  0
VISUALSTYLE
  5
2E
102
{ACAD_REACTORS
330
2A
102
}
102
{ACAD_XDICTIONARY
360
32E
102
}
330
2A
100
AcDbVisualStyle
  2
GouraudWithEdges
 70
     3
 71
     2
 72
     2
 73
     1
 90
        2
 40
-0.6
 41
30.0
 62
     5
 63
     7
 74
     1
 91
        4
 64
     7
 65
   257
 75
     1
175
     1
 42
1.0
 92
        0
 66
   257
 43
1.0
 76
     1
 77
     6
 78
     2
 67
     7
 79
     5
170
     0
171
     0
290
     0
174
     0
 93
       13
 44
0.0
173
     0
291
     1
 45
0.0
1001
ACAD
1000
AcDbSavedByObjectVersion
1070
     0
  0
VISUALSTYLE
  5
38
102
{ACAD_REACTORS
330
2A
102
}
102
{ACAD_XDICTIONARY
360
342
102
}
330
2A
100
AcDbVisualStyle
  2
Linepattern
 70
    14
 71
     2
 72
     2
 73
     0
 90
        0
 40
-0.6
 41
-30.0
 62
     5
 63
     7
 74
     1
 91
        4
 64
     7
 65
   257
 75
     7
175
     7
 42
1.0
 92
        8
 66
     7
 43
1.0
 76
     1
 77
     6
 78
     2
 67
     7
 79
     5
170
     0
171
     0
290
     0
174
     0
 93
        1
 44
0.0
173
     0
291
     1
 45
0.0
1001
ACAD
1000
AcDbSavedByObjectVersion
1070
     0
  0
VISUALSTYLE
  5
33
102
{ACAD_REACTORS
330
2A
102
}
102
{ACAD_XDICTIONARY
360
338
102
}
330
2A
100
AcDbVisualStyle
  2
Realistic
 70
     8
 71
     2
 72
     2
 73
     0
 90
        0
 40
-0.6
 41
-30.0
 62
     5
 63
     7
 74
     1
 91
        0
 64
     7
 65
   257
 75
     1
175
     1
 42
1.0
 92
        8
 66
     8
 43
1.0
 76
     1
 77
     6
 78
     2
 67
     7
 79
     5
170
     0
171
     0
290
     0
174
     0
 93
       13
 44
0.0
173
     0
291
     0
 45
0.0
1001
ACAD
1000
AcDbSavedByObjectVersion
1070
     0
  0
VISUALSTYLE
  5
37
102
{ACAD_REACTORS
330
2A
102
}
102
{ACAD_XDICTIONARY
360
340
102
}
330
2A
100
AcDbVisualStyle
  2
Thicken
 70
    13
 71
     2
 72
     2
 73
     0
 90
        0
 40
-0.6
 41
-30.0
 62
     5
 63
     7
 74
     1
 91
        4
 64
     7
 65
   257
 75
     1
175
     1
 42
1.0
 92
       12
 66
     7
 43
1.0
 76
     1
 77
     6
 78
     2
 67
     7
 79
     5
170
     0
171
     0
290
     0
174
     0
 93
        1
 44
0.0
173
     0
291
     1
 45
0.0
1001
ACAD
1000
AcDbSavedByObjectVersion
1070
     0
  0
DICTIONARYVAR
  5
326
102
{ACAD_REACTORS
330
323
102
}
330
323
100
DictionaryVariables
280
     0
  1
2
  0
DICTIONARYVAR
  5
327
102
{ACAD_REACTORS
330
323
102
}
330
323
100
DictionaryVariables
280
     0
  1
1
  0
DICTIONARY
  5
34A
330
3D
100
AcDbDictionary
280
     1
281
     1
  3
ACAD_XREC_ROUNDTRIP
360
34B
  0
DICTIONARY
  5
348
330
3C
100
AcDbDictionary
280
     1
281
     1
  3
ACAD_XREC_ROUNDTRIP
360
349
  0
DICTIONARY
  5
34C
330
3E
100
AcDbDictionary
280
     1
281
     1
  3
ACAD_XREC_ROUNDTRIP
360
34D
  0
DICTIONARY
  5
330
330
2F
100
AcDbDictionary
280
     1
281
     1
  3
ACAD_XREC_ROUNDTRIP
360
331
  0
DICTIONARY
  5
334
330
31
100
AcDbDictionary
280
     1
281
     1
  3
ACAD_XREC_ROUNDTRIP
360
335
  0
DICTIONARY
  5
332
330
30
100
AcDbDictionary
280
     1
281
     1
  3
ACAD_XREC_ROUNDTRIP
360
333
  0
DICTIONARY
  5
336
330
32
100
AcDbDictionary
280
     1
281
     1
  3
ACAD_XREC_ROUNDTRIP
360
337
  0
DICTIONARY
  5
33E
330
36
100
AcDbDictionary
280
     1
281
     1
  3
ACAD_XREC_ROUNDTRIP
360
33F
  0
DICTIONARY
  5
346
330
3A
100
AcDbDictionary
280
     1
281
     1
  3
ACAD_XREC_ROUNDTRIP
360
347
  0
DICTIONARY
  5
33A
330
34
100
AcDbDictionary
280
     1
281
     1
  3
ACAD_XREC_ROUNDTRIP
360
33B
  0
DICTIONARY
  5
33C
330
35
100
AcDbDictionary
280
     1
281
     1
  3
ACAD_XREC_ROUNDTRIP
360
33D
  0
DICTIONARY
  5
344
330
39
100
AcDbDictionary
280
     1
281
     1
  3
ACAD_XREC_ROUNDTRIP
360
345
  0
DICTIONARY
  5
328
330
2B
100
AcDbDictionary
280
     1
281
     1
  3
ACAD_XREC_ROUNDTRIP
360
329
  0
DICTIONARY
  5
32A
330
2C
100
AcDbDictionary
280
     1
281
     1
  3
ACAD_XREC_ROUNDTRIP
360
32B
  0
DICTIONARY
  5
32C
330
2D
100
AcDbDictionary
280
     1
281
     1
  3
ACAD_XREC_ROUNDTRIP
360
32D
  0
DICTIONARY
  5
32E
330
2E
100
AcDbDictionary
280
     1
281
     1
  3
ACAD_XREC_ROUNDTRIP
360
32F
  0
DICTIONARY
  5
342
330
38
100
AcDbDictionary
280
     1
281
     1
  3
ACAD_XREC_ROUNDTRIP
360
343
  0
DICTIONARY
  5
338
330
33
100
AcDbDictionary
280
     1
281
     1
  3
ACAD_XREC_ROUNDTRIP
360
339
  0
DICTIONARY
  5
340
330
37
100
AcDbDictionary
280
     1
281
     1
  3
ACAD_XREC_ROUNDTRIP
360
341
  0
XRECORD
  5
34B
102
{ACAD_REACTORS
330
34A
102
}
330
34A
100
AcDbXrecord
280
     1
102
MATERIAL
148
0.0
149
0.0
149
0.0
 93
        0
 94
      127
282
     0
 72
     1
 77
     1
171
     1
175
     1
179
     1
273
     0
  0
XRECORD
  5
349
102
{ACAD_REACTORS
330
348
102
}
330
348
100
AcDbXrecord
280
     1
102
MATERIAL
148
0.0
149
0.0
149
0.0
 93
        0
 94
      127
282
     0
 72
     1
 77
     1
171
     1
175
     1
179
     1
273
     0
  0
XRECORD
  5
34D
102
{ACAD_REACTORS
330
34C
102
}
330
34C
100
AcDbXrecord
280
     1
102
MATERIAL
148
0.0
149
0.0
149
0.0
 93
        0
 94
      127
282
     0
 72
     1
 77
     1
171
     1
175
     1
179
     1
273
     0
  0
XRECORD
  5
331
102
{ACAD_REACTORS
330
330
102
}
330
330
100
AcDbXrecord
280
     1
102
RTVSPropertyOp0
 70
     1
102
RTVSPropertyOp1
 70
     1
102
RTVSPropertyOp2
 70
     1
102
RTVSPropertyOp3
 70
     1
102
RTVSPropertyOp4
 70
     1
102
RTVSPropertyOp5
 70
     1
102
RTVSPropertyOp6
 70
     1
102
RTVSPropertyOp7
 70
     1
102
RTVSPropertyOp8
 70
     1
102
RTVSPropertyOp9
 70
     1
102
RTVSPropertyOp10
 70
     1
102
RTVSPropertyOp11
 70
     1
102
RTVSPropertyOp12
 70
     1
102
RTVSPropertyOp13
 70
     1
102
RTVSPropertyOp14
 70
     1
102
RTVSPropertyOp15
 70
     1
102
RTVSPropertyOp16
 70
     1
102
RTVSPropertyOp17
 70
     1
102
RTVSPropertyOp18
 70
     1
102
RTVSPropertyOp19
 70
     1
102
RTVSPropertyOp20
 70
     1
102
RTVSPropertyOp21
 70
     1
102
RTVSPropertyOp22
 70
     1
102
RTVSPropertyOp23
 70
     1
102
RTVSPropertyOp24
 70
     1
102
RTVSPropertyOp25
 70
     1
102
RTVSPropertyOp26
 70
     1
102
RTVSPropertyOp27
 70
     1
102
RTVSPropertyOp28
 70
     1
102
RTVSPropertyOp29
 70
     1
102
RTVSPropertyOp30
 70
     1
102
RTVSPropertyOp31
 70
     1
102
RTVSPropertyOp32
 70
     1
  0
XRECORD
  5
335
102
{ACAD_REACTORS
330
334
102
}
330
334
100
AcDbXrecord
280
     1
102
RTVSPropertyOp0
 70
     1
102
RTVSPropertyOp1
 70
     1
102
RTVSPropertyOp2
 70
     1
102
RTVSPropertyOp3
 70
     1
102
RTVSPropertyOp4
 70
     1
102
RTVSPropertyOp5
 70
     1
102
RTVSPropertyOp6
 70
     1
102
RTVSPropertyOp7
 70
     1
102
RTVSPropertyOp8
 70
     1
102
RTVSPropertyOp9
 70
     1
102
RTVSPropertyOp10
 70
     1
102
RTVSPropertyOp11
 70
     1
102
RTVSPropertyOp12
 70
     1
102
RTVSPropertyOp13
 70
     1
102
RTVSPropertyOp14
 70
     1
102
RTVSPropertyOp15
 70
     1
102
RTVSPropertyOp16
 70
     1
102
RTVSPropertyOp17
 70
     1
102
RTVSPropertyOp18
 70
     1
102
RTVSPropertyOp19
 70
     1
102
RTVSPropertyOp20
 70
     1
102
RTVSPropertyOp21
 70
     1
102
RTVSPropertyOp22
 70
     1
102
RTVSPropertyOp23
 70
     1
102
RTVSPropertyOp24
 70
     1
102
RTVSPropertyOp25
 70
     1
102
RTVSPropertyOp26
 70
     1
102
RTVSPropertyOp27
 70
     1
102
RTVSPropertyOp28
 70
     1
102
RTVSPropertyOp29
 70
     1
102
RTVSPropertyOp30
 70
     1
102
RTVSPropertyOp31
 70
     1
102
RTVSPropertyOp32
 70
     1
  0
XRECORD
  5
333
102
{ACAD_REACTORS
330
332
102
}
330
332
100
AcDbXrecord
280
     1
102
RTVSPropertyOp0
 70
     1
102
RTVSPropertyOp1
 70
     1
102
RTVSPropertyOp2
 70
     1
102
RTVSPropertyOp3
 70
     1
102
RTVSPropertyOp4
 70
     1
102
RTVSPropertyOp5
 70
     1
102
RTVSPropertyOp6
 70
     1
102
RTVSPropertyOp7
 70
     1
102
RTVSPropertyOp8
 70
     1
102
RTVSPropertyOp9
 70
     1
102
RTVSPropertyOp10
 70
     1
102
RTVSPropertyOp11
 70
     1
102
RTVSPropertyOp12
 70
     1
102
RTVSPropertyOp13
 70
     1
102
RTVSPropertyOp14
 70
     1
102
RTVSPropertyOp15
 70
     1
102
RTVSPropertyOp16
 70
     1
102
RTVSPropertyOp17
 70
     1
102
RTVSPropertyOp18
 70
     1
102
RTVSPropertyOp19
 70
     1
102
RTVSPropertyOp20
 70
     1
102
RTVSPropertyOp21
 70
     1
102
RTVSPropertyOp22
 70
     1
102
RTVSPropertyOp23
 70
     1
102
RTVSPropertyOp24
 70
     1
102
RTVSPropertyOp25
 70
     1
102
RTVSPropertyOp26
 70
     1
102
RTVSPropertyOp27
 70
     1
102
RTVSPropertyOp28
 70
     1
102
RTVSPropertyOp29
 70
     1
102
RTVSPropertyOp30
 70
     1
102
RTVSPropertyOp31
 70
     1
102
RTVSPropertyOp32
 70
     1
  0
XRECORD
  5
337
102
{ACAD_REACTORS
330
336
102
}
330
336
100
AcDbXrecord
280
     1
102
RTVSPropertyOp0
 70
     1
102
RTVSPropertyOp1
 70
     1
102
RTVSPropertyOp2
 70
     1
102
RTVSPropertyOp3
 70
     1
102
RTVSPropertyOp4
 70
     1
102
RTVSPropertyOp5
 70
     1
102
RTVSPropertyOp6
 70
     1
102
RTVSPropertyOp7
 70
     1
102
RTVSPropertyOp8
 70
     1
102
RTVSPropertyOp9
 70
     1
102
RTVSPropertyOp10
 70
     1
102
RTVSPropertyOp11
 70
     1
102
RTVSPropertyOp12
 70
     1
102
RTVSPropertyOp13
 70
     1
102
RTVSPropertyOp14
 70
     1
102
RTVSPropertyOp15
 70
     1
102
RTVSPropertyOp16
 70
     1
102
RTVSPropertyOp17
 70
     1
102
RTVSPropertyOp18
 70
     1
102
RTVSPropertyOp19
 70
     1
102
RTVSPropertyOp20
 70
     1
102
RTVSPropertyOp21
 70
     1
102
RTVSPropertyOp22
 70
     1
102
RTVSPropertyOp23
 70
     1
102
RTVSPropertyOp24
 70
     1
102
RTVSPropertyOp25
 70
     1
102
RTVSPropertyOp26
 70
     1
102
RTVSPropertyOp27
 70
     1
102
RTVSPropertyOp28
 70
     1
102
RTVSPropertyOp29
 70
     1
102
RTVSPropertyOp30
 70
     1
102
RTVSPropertyOp31
 70
     1
102
RTVSPropertyOp32
 70
     1
  0
XRECORD
  5
33F
102
{ACAD_REACTORS
330
33E
102
}
330
33E
100
AcDbXrecord
280
     1
102
RTVSPropertyOp0
 70
     1
102
RTVSPropertyOp1
 70
     1
102
RTVSPropertyOp2
 70
     1
102
RTVSPropertyOp3
 70
     1
102
RTVSPropertyOp4
 70
     1
102
RTVSPropertyOp5
 70
     1
102
RTVSPropertyOp6
 70
     1
102
RTVSPropertyOp7
 70
     1
102
RTVSPropertyOp8
 70
     1
102
RTVSPropertyOp9
 70
     1
102
RTVSPropertyOp10
 70
     1
102
RTVSPropertyOp11
 70
     1
102
RTVSPropertyOp12
 70
     1
102
RTVSPropertyOp13
 70
     1
102
RTVSPropertyOp14
 70
     1
102
RTVSPropertyOp15
 70
     1
102
RTVSPropertyOp16
 70
     1
102
RTVSPropertyOp17
 70
     1
102
RTVSPropertyOp18
 70
     1
102
RTVSPropertyOp19
 70
     1
102
RTVSPropertyOp20
 70
     1
102
RTVSPropertyOp21
 70
     1
102
RTVSPropertyOp22
 70
     1
102
RTVSPropertyOp23
 70
     1
102
RTVSPropertyOp24
 70
     1
102
RTVSPropertyOp25
 70
     1
102
RTVSPropertyOp26
 70
     1
102
RTVSPropertyOp27
 70
     1
102
RTVSPropertyOp28
 70
     1
102
RTVSPropertyOp29
 70
     1
102
RTVSPropertyOp30
 70
     1
102
RTVSPropertyOp31
 70
     1
102
RTVSPropertyOp32
 70
     1
  0
XRECORD
  5
347
102
{ACAD_REACTORS
330
346
102
}
330
346
100
AcDbXrecord
280
     1
102
RTVSPropertyOp0
 70
     1
102
RTVSPropertyOp1
 70
     1
102
RTVSPropertyOp2
 70
     1
102
RTVSPropertyOp3
 70
     1
102
RTVSPropertyOp4
 70
     1
102
RTVSPropertyOp5
 70
     1
102
RTVSPropertyOp6
 70
     1
102
RTVSPropertyOp7
 70
     1
102
RTVSPropertyOp8
 70
     1
102
RTVSPropertyOp9
 70
     1
102
RTVSPropertyOp10
 70
     1
102
RTVSPropertyOp11
 70
     1
102
RTVSPropertyOp12
 70
     1
102
RTVSPropertyOp13
 70
     1
102
RTVSPropertyOp14
 70
     1
102
RTVSPropertyOp15
 70
     1
102
RTVSPropertyOp16
 70
     1
102
RTVSPropertyOp17
 70
     1
102
RTVSPropertyOp18
 70
     1
102
RTVSPropertyOp19
 70
     1
102
RTVSPropertyOp20
 70
     1
102
RTVSPropertyOp21
 70
     1
102
RTVSPropertyOp22
 70
     1
102
RTVSPropertyOp23
 70
     1
102
RTVSPropertyOp24
 70
     1
102
RTVSPropertyOp25
 70
     1
102
RTVSPropertyOp26
 70
     1
102
RTVSPropertyOp27
 70
     1
102
RTVSPropertyOp28
 70
     1
102
RTVSPropertyOp29
 70
     1
102
RTVSPropertyOp30
 70
     1
102
RTVSPropertyOp31
 70
     1
102
RTVSPropertyOp32
 70
     1
  0
XRECORD
  5
33B
102
{ACAD_REACTORS
330
33A
102
}
330
33A
100
AcDbXrecord
280
     1
102
RTVSPropertyOp0
 70
     1
102
RTVSPropertyOp1
 70
     1
102
RTVSPropertyOp2
 70
     1
102
RTVSPropertyOp3
 70
     1
102
RTVSPropertyOp4
 70
     1
102
RTVSPropertyOp5
 70
     1
102
RTVSPropertyOp6
 70
     1
102
RTVSPropertyOp7
 70
     1
102
RTVSPropertyOp8
 70
     1
102
RTVSPropertyOp9
 70
     1
102
RTVSPropertyOp10
 70
     1
102
RTVSPropertyOp11
 70
     1
102
RTVSPropertyOp12
 70
     1
102
RTVSPropertyOp13
 70
     1
102
RTVSPropertyOp14
 70
     1
102
RTVSPropertyOp15
 70
     1
102
RTVSPropertyOp16
 70
     1
102
RTVSPropertyOp17
 70
     1
102
RTVSPropertyOp18
 70
     1
102
RTVSPropertyOp19
 70
     1
102
RTVSPropertyOp20
 70
     1
102
RTVSPropertyOp21
 70
     1
102
RTVSPropertyOp22
 70
     1
102
RTVSPropertyOp23
 70
     1
102
RTVSPropertyOp24
 70
     1
102
RTVSPropertyOp25
 70
     1
102
RTVSPropertyOp26
 70
     1
102
RTVSPropertyOp27
 70
     1
102
RTVSPropertyOp28
 70
     1
102
RTVSPropertyOp29
 70
     1
102
RTVSPropertyOp30
 70
     1
102
RTVSPropertyOp31
 70
     1
102
RTVSPropertyOp32
 70
     1
  0
XRECORD
  5
33D
102
{ACAD_REACTORS
330
33C
102
}
330
33C
100
AcDbXrecord
280
     1
102
RTVSPropertyOp0
 70
     1
102
RTVSPropertyOp1
 70
     1
102
RTVSPropertyOp2
 70
     1
102
RTVSPropertyOp3
 70
     1
102
RTVSPropertyOp4
 70
     1
102
RTVSPropertyOp5
 70
     1
102
RTVSPropertyOp6
 70
     1
102
RTVSPropertyOp7
 70
     1
102
RTVSPropertyOp8
 70
     1
102
RTVSPropertyOp9
 70
     1
102
RTVSPropertyOp10
 70
     1
102
RTVSPropertyOp11
 70
     1
102
RTVSPropertyOp12
 70
     1
102
RTVSPropertyOp13
 70
     1
102
RTVSPropertyOp14
 70
     1
102
RTVSPropertyOp15
 70
     1
102
RTVSPropertyOp16
 70
     1
102
RTVSPropertyOp17
 70
     1
102
RTVSPropertyOp18
 70
     1
102
RTVSPropertyOp19
 70
     1
102
RTVSPropertyOp20
 70
     1
102
RTVSPropertyOp21
 70
     1
102
RTVSPropertyOp22
 70
     1
102
RTVSPropertyOp23
 70
     1
102
RTVSPropertyOp24
 70
     1
102
RTVSPropertyOp25
 70
     1
102
RTVSPropertyOp26
 70
     1
102
RTVSPropertyOp27
 70
     1
102
RTVSPropertyOp28
 70
     1
102
RTVSPropertyOp29
 70
     1
102
RTVSPropertyOp30
 70
     1
102
RTVSPropertyOp31
 70
     1
102
RTVSPropertyOp32
 70
     1
  0
XRECORD
  5
345
102
{ACAD_REACTORS
330
344
102
}
330
344
100
AcDbXrecord
280
     1
102
RTVSPropertyOp0
 70
     1
102
RTVSPropertyOp1
 70
     1
102
RTVSPropertyOp2
 70
     1
102
RTVSPropertyOp3
 70
     1
102
RTVSPropertyOp4
 70
     1
102
RTVSPropertyOp5
 70
     1
102
RTVSPropertyOp6
 70
     1
102
RTVSPropertyOp7
 70
     1
102
RTVSPropertyOp8
 70
     1
102
RTVSPropertyOp9
 70
     1
102
RTVSPropertyOp10
 70
     1
102
RTVSPropertyOp11
 70
     1
102
RTVSPropertyOp12
 70
     1
102
RTVSPropertyOp13
 70
     1
102
RTVSPropertyOp14
 70
     1
102
RTVSPropertyOp15
 70
     1
102
RTVSPropertyOp16
 70
     1
102
RTVSPropertyOp17
 70
     1
102
RTVSPropertyOp18
 70
     1
102
RTVSPropertyOp19
 70
     1
102
RTVSPropertyOp20
 70
     1
102
RTVSPropertyOp21
 70
     1
102
RTVSPropertyOp22
 70
     1
102
RTVSPropertyOp23
 70
     1
102
RTVSPropertyOp24
 70
     1
102
RTVSPropertyOp25
 70
     1
102
RTVSPropertyOp26
 70
     1
102
RTVSPropertyOp27
 70
     1
102
RTVSPropertyOp28
 70
     1
102
RTVSPropertyOp29
 70
     1
102
RTVSPropertyOp30
 70
     1
102
RTVSPropertyOp31
 70
     1
102
RTVSPropertyOp32
 70
     1
  0
XRECORD
  5
329
102
{ACAD_REACTORS
330
328
102
}
330
328
100
AcDbXrecord
280
     1
102
RTVSPropertyOp0
 70
     1
102
RTVSPropertyOp1
 70
     1
102
RTVSPropertyOp2
 70
     1
102
RTVSPropertyOp3
 70
     1
102
RTVSPropertyOp4
 70
     1
102
RTVSPropertyOp5
 70
     1
102
RTVSPropertyOp6
 70
     1
102
RTVSPropertyOp7
 70
     1
102
RTVSPropertyOp8
 70
     1
102
RTVSPropertyOp9
 70
     1
102
RTVSPropertyOp10
 70
     1
102
RTVSPropertyOp11
 70
     1
102
RTVSPropertyOp12
 70
     1
102
RTVSPropertyOp13
 70
     1
102
RTVSPropertyOp14
 70
     1
102
RTVSPropertyOp15
 70
     1
102
RTVSPropertyOp16
 70
     1
102
RTVSPropertyOp17
 70
     1
102
RTVSPropertyOp18
 70
     1
102
RTVSPropertyOp19
 70
     1
102
RTVSPropertyOp20
 70
     1
102
RTVSPropertyOp21
 70
     1
102
RTVSPropertyOp22
 70
     1
102
RTVSPropertyOp23
 70
     1
102
RTVSPropertyOp24
 70
     1
102
RTVSPropertyOp25
 70
     1
102
RTVSPropertyOp26
 70
     1
102
RTVSPropertyOp27
 70
     1
102
RTVSPropertyOp28
 70
     1
102
RTVSPropertyOp29
 70
     1
102
RTVSPropertyOp30
 70
     1
102
RTVSPropertyOp31
 70
     1
102
RTVSPropertyOp32
 70
     1
  0
XRECORD
  5
32B
102
{ACAD_REACTORS
330
32A
102
}
330
32A
100
AcDbXrecord
280
     1
102
RTVSPropertyOp0
 70
     1
102
RTVSPropertyOp1
 70
     1
102
RTVSPropertyOp2
 70
     1
102
RTVSPropertyOp3
 70
     1
102
RTVSPropertyOp4
 70
     1
102
RTVSPropertyOp5
 70
     1
102
RTVSPropertyOp6
 70
     1
102
RTVSPropertyOp7
 70
     1
102
RTVSPropertyOp8
 70
     1
102
RTVSPropertyOp9
 70
     1
102
RTVSPropertyOp10
 70
     1
102
RTVSPropertyOp11
 70
     1
102
RTVSPropertyOp12
 70
     1
102
RTVSPropertyOp13
 70
     1
102
RTVSPropertyOp14
 70
     1
102
RTVSPropertyOp15
 70
     1
102
RTVSPropertyOp16
 70
     1
102
RTVSPropertyOp17
 70
     1
102
RTVSPropertyOp18
 70
     1
102
RTVSPropertyOp19
 70
     1
102
RTVSPropertyOp20
 70
     1
102
RTVSPropertyOp21
 70
     1
102
RTVSPropertyOp22
 70
     1
102
RTVSPropertyOp23
 70
     1
102
RTVSPropertyOp24
 70
     1
102
RTVSPropertyOp25
 70
     1
102
RTVSPropertyOp26
 70
     1
102
RTVSPropertyOp27
 70
     1
102
RTVSPropertyOp28
 70
     1
102
RTVSPropertyOp29
 70
     1
102
RTVSPropertyOp30
 70
     1
102
RTVSPropertyOp31
 70
     1
102
RTVSPropertyOp32
 70
     1
  0
XRECORD
  5
32D
102
{ACAD_REACTORS
330
32C
102
}
330
32C
100
AcDbXrecord
280
     1
102
RTVSPropertyOp0
 70
     1
102
RTVSPropertyOp1
 70
     1
102
RTVSPropertyOp2
 70
     1
102
RTVSPropertyOp3
 70
     1
102
RTVSPropertyOp4
 70
     1
102
RTVSPropertyOp5
 70
     1
102
RTVSPropertyOp6
 70
     1
102
RTVSPropertyOp7
 70
     1
102
RTVSPropertyOp8
 70
     1
102
RTVSPropertyOp9
 70
     1
102
RTVSPropertyOp10
 70
     1
102
RTVSPropertyOp11
 70
     1
102
RTVSPropertyOp12
 70
     1
102
RTVSPropertyOp13
 70
     1
102
RTVSPropertyOp14
 70
     1
102
RTVSPropertyOp15
 70
     1
102
RTVSPropertyOp16
 70
     1
102
RTVSPropertyOp17
 70
     1
102
RTVSPropertyOp18
 70
     1
102
RTVSPropertyOp19
 70
     1
102
RTVSPropertyOp20
 70
     1
102
RTVSPropertyOp21
 70
     1
102
RTVSPropertyOp22
 70
     1
102
RTVSPropertyOp23
 70
     1
102
RTVSPropertyOp24
 70
     1
102
RTVSPropertyOp25
 70
     1
102
RTVSPropertyOp26
 70
     1
102
RTVSPropertyOp27
 70
     1
102
RTVSPropertyOp28
 70
     1
102
RTVSPropertyOp29
 70
     1
102
RTVSPropertyOp30
 70
     1
102
RTVSPropertyOp31
 70
     1
102
RTVSPropertyOp32
 70
     1
  0
XRECORD
  5
32F
102
{ACAD_REACTORS
330
32E
102
}
330
32E
100
AcDbXrecord
280
     1
102
RTVSPropertyOp0
 70
     1
102
RTVSPropertyOp1
 70
     1
102
RTVSPropertyOp2
 70
     1
102
RTVSPropertyOp3
 70
     1
102
RTVSPropertyOp4
 70
     1
102
RTVSPropertyOp5
 70
     1
102
RTVSPropertyOp6
 70
     1
102
RTVSPropertyOp7
 70
     1
102
RTVSPropertyOp8
 70
     1
102
RTVSPropertyOp9
 70
     1
102
RTVSPropertyOp10
 70
     1
102
RTVSPropertyOp11
 70
     1
102
RTVSPropertyOp12
 70
     1
102
RTVSPropertyOp13
 70
     1
102
RTVSPropertyOp14
 70
     1
102
RTVSPropertyOp15
 70
     1
102
RTVSPropertyOp16
 70
     1
102
RTVSPropertyOp17
 70
     1
102
RTVSPropertyOp18
 70
     1
102
RTVSPropertyOp19
 70
     1
102
RTVSPropertyOp20
 70
     1
102
RTVSPropertyOp21
 70
     1
102
RTVSPropertyOp22
 70
     1
102
RTVSPropertyOp23
 70
     1
102
RTVSPropertyOp24
 70
     1
102
RTVSPropertyOp25
 70
     1
102
RTVSPropertyOp26
 70
     1
102
RTVSPropertyOp27
 70
     1
102
RTVSPropertyOp28
 70
     1
102
RTVSPropertyOp29
 70
     1
102
RTVSPropertyOp30
 70
     1
102
RTVSPropertyOp31
 70
     1
102
RTVSPropertyOp32
 70
     1
  0
XRECORD
  5
343
102
{ACAD_REACTORS
330
342
102
}
330
342
100
AcDbXrecord
280
     1
102
RTVSPropertyOp0
 70
     1
102
RTVSPropertyOp1
 70
     1
102
RTVSPropertyOp2
 70
     1
102
RTVSPropertyOp3
 70
     1
102
RTVSPropertyOp4
 70
     1
102
RTVSPropertyOp5
 70
     1
102
RTVSPropertyOp6
 70
     1
102
RTVSPropertyOp7
 70
     1
102
RTVSPropertyOp8
 70
     1
102
RTVSPropertyOp9
 70
     1
102
RTVSPropertyOp10
 70
     1
102
RTVSPropertyOp11
 70
     1
102
RTVSPropertyOp12
 70
     1
102
RTVSPropertyOp13
 70
     1
102
RTVSPropertyOp14
 70
     1
102
RTVSPropertyOp15
 70
     1
102
RTVSPropertyOp16
 70
     1
102
RTVSPropertyOp17
 70
     1
102
RTVSPropertyOp18
 70
     1
102
RTVSPropertyOp19
 70
     1
102
RTVSPropertyOp20
 70
     1
102
RTVSPropertyOp21
 70
     1
102
RTVSPropertyOp22
 70
     1
102
RTVSPropertyOp23
 70
     1
102
RTVSPropertyOp24
 70
     1
102
RTVSPropertyOp25
 70
     1
102
RTVSPropertyOp26
 70
     1
102
RTVSPropertyOp27
 70
     1
102
RTVSPropertyOp28
 70
     1
102
RTVSPropertyOp29
 70
     1
102
RTVSPropertyOp30
 70
     1
102
RTVSPropertyOp31
 70
     1
102
RTVSPropertyOp32
 70
     1
  0
XRECORD
  5
339
102
{ACAD_REACTORS
330
338
102
}
330
338
100
AcDbXrecord
280
     1
102
RTVSPropertyOp0
 70
     1
102
RTVSPropertyOp1
 70
     1
102
RTVSPropertyOp2
 70
     1
102
RTVSPropertyOp3
 70
     1
102
RTVSPropertyOp4
 70
     1
102
RTVSPropertyOp5
 70
     1
102
RTVSPropertyOp6
 70
     1
102
RTVSPropertyOp7
 70
     1
102
RTVSPropertyOp8
 70
     1
102
RTVSPropertyOp9
 70
     1
102
RTVSPropertyOp10
 70
     1
102
RTVSPropertyOp11
 70
     1
102
RTVSPropertyOp12
 70
     1
102
RTVSPropertyOp13
 70
     1
102
RTVSPropertyOp14
 70
     1
102
RTVSPropertyOp15
 70
     1
102
RTVSPropertyOp16
 70
     1
102
RTVSPropertyOp17
 70
     1
102
RTVSPropertyOp18
 70
     1
102
RTVSPropertyOp19
 70
     1
102
RTVSPropertyOp20
 70
     1
102
RTVSPropertyOp21
 70
     1
102
RTVSPropertyOp22
 70
     1
102
RTVSPropertyOp23
 70
     1
102
RTVSPropertyOp24
 70
     1
102
RTVSPropertyOp25
 70
     1
102
RTVSPropertyOp26
 70
     1
102
RTVSPropertyOp27
 70
     1
102
RTVSPropertyOp28
 70
     1
102
RTVSPropertyOp29
 70
     1
102
RTVSPropertyOp30
 70
     1
102
RTVSPropertyOp31
 70
     1
102
RTVSPropertyOp32
 70
     1
  0
XRECORD
  5
341
102
{ACAD_REACTORS
330
340
102
}
330
340
100
AcDbXrecord
280
     1
102
RTVSPropertyOp0
 70
     1
102
RTVSPropertyOp1
 70
     1
102
RTVSPropertyOp2
 70
     1
102
RTVSPropertyOp3
 70
     1
102
RTVSPropertyOp4
 70
     1
102
RTVSPropertyOp5
 70
     1
102
RTVSPropertyOp6
 70
     1
102
RTVSPropertyOp7
 70
     1
102
RTVSPropertyOp8
 70
     1
102
RTVSPropertyOp9
 70
     1
102
RTVSPropertyOp10
 70
     1
102
RTVSPropertyOp11
 70
     1
102
RTVSPropertyOp12
 70
     1
102
RTVSPropertyOp13
 70
     1
102
RTVSPropertyOp14
 70
     1
102
RTVSPropertyOp15
 70
     1
102
RTVSPropertyOp16
 70
     1
102
RTVSPropertyOp17
 70
     1
102
RTVSPropertyOp18
 70
     1
102
RTVSPropertyOp19
 70
     1
102
RTVSPropertyOp20
 70
     1
102
RTVSPropertyOp21
 70
     1
102
RTVSPropertyOp22
 70
     1
102
RTVSPropertyOp23
 70
     1
102
RTVSPropertyOp24
 70
     1
102
RTVSPropertyOp25
 70
     1
102
RTVSPropertyOp26
 70
     1
102
RTVSPropertyOp27
 70
     1
102
RTVSPropertyOp28
 70
     1
102
RTVSPropertyOp29
 70
     1
102
RTVSPropertyOp30
 70
     1
102
RTVSPropertyOp31
 70
     1
102
RTVSPropertyOp32
 70
     1
  0
ENDSEC
  0
EOF
