  0
SECTION
  2
HEADER
  9
$ACADVER
  1
AC1015
  9
$ACADMAINTVER
 70
     6
  9
$DWGCODEPAGE
  3
ANSI_1252
  9
$INSBASE
 10
0.0
 20
0.0
 30
0.0
  9
$EXTMIN
 10
-8.70000000008005
 20
2.99999988108208
 30
0.0
  9
$EXTMAX
 10
200.4000000050782
 20
288.399999881082
 30
0.0
  9
$LIMMIN
 10
0.0
 20
0.0
  9
$LIMMAX
 10
12.0
 20
9.0
  9
$ORTHOMODE
 70
     0
  9
$REGENMODE
 70
     1
  9
$FILLMODE
 70
     1
  9
$QTEXTMODE
 70
     0
  9
$MIRRTEXT
 70
     1
  9
$LTSCALE
 40
1.0
  9
$ATTMODE
 70
     1
  9
$TEXTSIZE
 40
0.2
  9
$TRACEWID
 40
0.05
  9
$TEXTSTYLE
  7
Standard
  9
$CLAYER
  8
0
  9
$CELTYPE
  6
ByLayer
  9
$CECOLOR
 62
   256
  9
$CELTSCALE
 40
1.0
  9
$DISPSILH
 70
     0
  9
$DIMSCALE
 40
1.0
  9
$DIMASZ
 40
0.18
  9
$DIMEXO
 40
0.0625
  9
$DIMDLI
 40
0.38
  9
$DIMRND
 40
0.0
  9
$DIMDLE
 40
0.0
  9
$DIMEXE
 40
0.18
  9
$DIMTP
 40
0.0
  9
$DIMTM
 40
0.0
  9
$DIMTXT
 40
0.18
  9
$DIMCEN
 40
0.09
  9
$DIMTSZ
 40
0.0
  9
$DIMTOL
 70
     0
  9
$DIMLIM
 70
     0
  9
$DIMTIH
 70
     1
  9
$DIMTOH
 70
     1
  9
$DIMSE1
 70
     0
  9
$DIMSE2
 70
     0
  9
$DIMTAD
 70
     0
  9
$DIMZIN
 70
     0
  9
$DIMBLK
  1

  9
$DIMASO
 70
     1
  9
$DIMSHO
 70
     1
  9
$DIMPOST
  1

  9
$DIMAPOST
  1

  9
$DIMALT
 70
     0
  9
$DIMALTD
 70
     2
  9
$DIMALTF
 40
25.4
  9
$DIMLFAC
 40
1.0
  9
$DIMTOFL
 70
     0
  9
$DIMTVP
 40
0.0
  9
$DIMTIX
 70
     0
  9
$DIMSOXD
 70
     0
  9
$DIMSAH
 70
     0
  9
$DIMBLK1
  1

  9
$DIMBLK2
  1

  9
$DIMSTYLE
  2
Standard
  9
$DIMCLRD
 70
     0
  9
$DIMCLRE
 70
     0
  9
$DIMCLRT
 70
     0
  9
$DIMTFAC
 40
1.0
  9
$DIMGAP
 40
0.09
  9
$DIMJUST
 70
     0
  9
$DIMSD1
 70
     0
  9
$DIMSD2
 70
     0
  9
$DIMTOLJ
 70
     1
  9
$DIMTZIN
 70
     0
  9
$DIMALTZ
 70
     0
  9
$DIMALTTZ
 70
     0
  9
$DIMUPT
 70
     0
  9
$DIMDEC
 70
     4
  9
$DIMTDEC
 70
     4
  9
$DIMALTU
 70
     2
  9
$DIMALTTD
 70
     2
  9
$DIMTXSTY
  7
Standard
  9
$DIMAUNIT
 70
     0
  9
$DIMADEC
 70
     0
  9
$DIMALTRND
 40
0.0
  9
$DIMAZIN
 70
     0
  9
$DIMDSEP
 70
    46
  9
$DIMATFIT
 70
     3
  9
$DIMFRAC
 70
     0
  9
$DIMLDRBLK
  1

  9
$DIMLUNIT
 70
     2
  9
$DIMLWD
 70
    -2
  9
$DIMLWE
 70
    -2
  9
$DIMTMOVE
 70
     0
  9
$LUNITS
 70
     2
  9
$LUPREC
 70
     4
  9
$SKETCHINC
 40
0.1
  9
$FILLETRAD
 40
0.5
  9
$AUNITS
 70
     0
  9
$AUPREC
 70
     0
  9
$MENU
  1
.
  9
$ELEVATION
 40
0.0
  9
$PELEVATION
 40
0.0
  9
$THICKNESS
 40
0.0
  9
$LIMCHECK
 70
     0
  9
$CHAMFERA
 40
0.5
  9
$CHAMFERB
 40
0.5
  9
$CHAMFERC
 40
1.0
  9
$CHAMFERD
 40
0.0
  9
$SKPOLY
 70
     0
  9
$TDCREATE
 40
2456706.534179641
  9
$TDUCREATE
 40
2456706.492512974
  9
$TDUPDATE
 40
2456706.534180915
  9
$TDUUPDATE
 40
2456706.492514248
  9
$TDINDWG
 40
0.0000000116
  9
$TDUSRTIMER
 40
0.0000000116
  9
$USRTIMER
 70
     1
  9
$ANGBASE
 50
0.0
  9
$ANGDIR
 70
     0
  9
$PDMODE
 70
     0
  9
$PDSIZE
 40
0.0
  9
$PLINEWID
 40
0.0
  9
$SPLFRAME
 70
     0
  9
$SPLINETYPE
 70
     6
  9
$SPLINESEGS
 70
     8
  9
$HANDSEED
  5
49F
  9
$SURFTAB1
 70
     6
  9
$SURFTAB2
 70
     6
  9
$SURFTYPE
 70
     6
  9
$SURFU
 70
     6
  9
$SURFV
 70
     6
  9
$UCSBASE
  2

  9
$UCSNAME
  2

  9
$UCSORG
 10
0.0
 20
0.0
 30
0.0
  9
$UCSXDIR
 10
1.0
 20
0.0
 30
0.0
  9
$UCSYDIR
 10
0.0
 20
1.0
 30
0.0
  9
$UCSORTHOREF
  2

  9
$UCSORTHOVIEW
 70
     0
  9
$UCSORGTOP
 10
0.0
 20
0.0
 30
0.0
  9
$UCSORGBOTTOM
 10
0.0
 20
0.0
 30
0.0
  9
$UCSORGLEFT
 10
0.0
 20
0.0
 30
0.0
  9
$UCSORGRIGHT
 10
0.0
 20
0.0
 30
0.0
  9
$UCSORGFRONT
 10
0.0
 20
0.0
 30
0.0
  9
$UCSORGBACK
 10
0.0
 20
0.0
 30
0.0
  9
$PUCSBASE
  2

  9
$PUCSNAME
  2

  9
$PUCSORG
 10
0.0
 20
0.0
 30
0.0
  9
$PUCSXDIR
 10
1.0
 20
0.0
 30
0.0
  9
$PUCSYDIR
 10
0.0
 20
1.0
 30
0.0
  9
$PUCSORTHOREF
  2

  9
$PUCSORTHOVIEW
 70
     0
  9
$PUCSORGTOP
 10
0.0
 20
0.0
 30
0.0
  9
$PUCSORGBOTTOM
 10
0.0
 20
0.0
 30
0.0
  9
$PUCSORGLEFT
 10
0.0
 20
0.0
 30
0.0
  9
$PUCSORGRIGHT
 10
0.0
 20
0.0
 30
0.0
  9
$PUCSORGFRONT
 10
0.0
 20
0.0
 30
0.0
  9
$PUCSORGBACK
 10
0.0
 20
0.0
 30
0.0
  9
$USERI1
 70
     0
  9
$USERI2
 70
     0
  9
$USERI3
 70
     0
  9
$USERI4
 70
     0
  9
$USERI5
 70
     0
  9
$USERR1
 40
18.1
  9
$USERR2
 40
0.0
  9
$USERR3
 40
0.0
  9
$USERR4
 40
0.0
  9
$USERR5
 40
0.0
  9
$WORLDVIEW
 70
     1
  9
$SHADEDGE
 70
     3
  9
$SHADEDIF
 70
    70
  9
$TILEMODE
 70
     1
  9
$MAXACTVP
 70
    64
  9
$PINSBASE
 10
0.0
 20
0.0
 30
0.0
  9
$PLIMCHECK
 70
     0
  9
$PEXTMIN
 10
1.00000000000000E+20
 20
1.00000000000000E+20
 30
1.00000000000000E+20
  9
$PEXTMAX
 10
-1.00000000000000E+20
 20
-1.00000000000000E+20
 30
-1.00000000000000E+20
  9
$PLIMMIN
 10
0.0
 20
0.0
  9
$PLIMMAX
 10
12.0
 20
9.0
  9
$UNITMODE
 70
     0
  9
$VISRETAIN
 70
     1
  9
$PLINEGEN
 70
     0
  9
$PSLTSCALE
 70
     1
  9
$TREEDEPTH
 70
  3020
  9
$CMLSTYLE
  2
Standard
  9
$CMLJUST
 70
     0
  9
$CMLSCALE
 40
1.0
  9
$PROXYGRAPHICS
 70
     1
  9
$MEASUREMENT
 70
     1
  9
$CELWEIGHT
370
    -1
  9
$ENDCAPS
280
     0
  9
$JOINSTYLE
280
     0
  9
$LWDISPLAY
290
     0
  9
$INSUNITS
 70
     4
  9
$HYPERLINKBASE
  1

  9
$STYLESHEET
  1

  9
$XEDIT
290
     1
  9
$CEPSNTYPE
380
     0
  9
$PSTYLEMODE
290
     1
  9
$FINGERPRINTGUID
  2
{A49B586E-FB93-4B8B-8F31-BBA98A0862EF}
  9
$VERSIONGUID
  2
{FAEB1C32-E019-11D5-929B-00C0DF256EC4}
  9
$EXTNAMES
290
     1
  9
$PSVPSCALE
 40
0.0
  9
$OLESTARTUP
290
     0
  0
ENDSEC
  0
SECTION
  2
CLASSES
  0
CLASS
  1
ACDBDICTIONARYWDFLT
  2
AcDbDictionaryWithDefault
  3
ObjectDBX Classes
 90
        0
280
     0
281
     0
  0
CLASS
  1
VISUALSTYLE
  2
AcDbVisualStyle
  3
ObjectDBX Classes
 90
     4095
280
     0
281
     0
  0
CLASS
  1
MATERIAL
  2
AcDbMaterial
  3
ObjectDBX Classes
 90
     1153
280
     0
281
     0
  0
CLASS
  1
IMAGEDEF
  2
AcDbRasterImageDef
  3
ISM
 90
        0
280
     0
281
     0
  0
CLASS
  1
IMAGE
  2
AcDbRasterImage
  3
ISM
 90
      127
280
     0
281
     1
  0
CLASS
  1
IMAGEDEF_REACTOR
  2
AcDbRasterImageDefReactor
  3
ISM
 90
        1
280
     0
281
     0
  0
CLASS
  1
DICTIONARYVAR
  2
AcDbDictionaryVar
  3
ObjectDBX Classes
 90
        0
280
     0
281
     0
  0
CLASS
  1
ACDBPLACEHOLDER
  2
AcDbPlaceHolder
  3
ObjectDBX Classes
 90
        0
280
     0
281
     0
  0
CLASS
  1
LAYOUT
  2
AcDbLayout
  3
ObjectDBX Classes
 90
        0
280
     0
281
     0
  0
ENDSEC
  0
SECTION
  2
TABLES
  0
TABLE
  2
VPORT
  5
8
330
0
100
AcDbSymbolTable
 70
     1
  0
VPORT
  5
29
330
8
100
AcDbSymbolTableRecord
100
AcDbViewportTableRecord
  2
*Active
 70
     0
 10
0.0
 20
0.0
 11
1.0
 21
1.0
 12
95.85000000249907
 22
145.6999998810821
 13
0.0
 23
0.0
 14
0.5
 24
0.5
 15
0.5
 25
0.5
 16
0.0
 26
0.0
 36
1.0
 17
0.0
 27
0.0
 37
0.0
 40
313.9399999999999
 41
1.60267857142857
 42
50.0
 43
0.0
 44
0.0
 50
0.0
 51
0.0
 71
     0
 72
   100
 73
     1
 74
     3
 75
     0
 76
     0
 77
     0
 78
     0
281
     0
 65
     1
110
0.0
120
0.0
130
0.0
111
1.0
121
0.0
131
0.0
112
0.0
122
1.0
132
0.0
 79
     0
146
0.0
  0
ENDTAB
  0
TABLE
  2
LTYPE
  5
5
330
0
100
AcDbSymbolTable
 70
     8
  0
LTYPE
  5
14
330
5
100
AcDbSymbolTableRecord
100
AcDbLinetypeTableRecord
  2
ByBlock
 70
     0
  3

 72
    65
 73
     0
 40
0.0
  0
LTYPE
  5
15
330
5
100
AcDbSymbolTableRecord
100
AcDbLinetypeTableRecord
  2
ByLayer
 70
     0
  3

 72
    65
 73
     0
 40
0.0
  0
LTYPE
  5
16
330
5
100
AcDbSymbolTableRecord
100
AcDbLinetypeTableRecord
  2
Continuous
 70
     0
  3
Solid line
 72
    65
 73
     0
 40
0.0
  0
LTYPE
  5
3F
330
5
100
AcDbSymbolTableRecord
100
AcDbLinetypeTableRecord
  2
DASHED
 70
     0
  3
Dashed
 72
    65
 73
     2
 40
15.0
 49
7.0
 74
     0
 49
-8.0
 74
     0
  0
LTYPE
  5
40
330
5
100
AcDbSymbolTableRecord
100
AcDbLinetypeTableRecord
  2
DOTTED
 70
     0
  3
Dotted
 72
    65
 73
     2
 40
1.0
 49
0.0
 74
     0
 49
-1.0
 74
     0
  0
LTYPE
  5
41
330
5
100
AcDbSymbolTableRecord
100
AcDbLinetypeTableRecord
  2
DOT_CENTER
 70
     0
  3
Dot_Center
 72
    65
 73
     4
 40
14.0
 49
12.0
 74
     0
 49
-1.0
 74
     0
 49
0.0
 74
     0
 49
-1.0
 74
     0
  0
LTYPE
  5
42
330
5
100
AcDbSymbolTableRecord
100
AcDbLinetypeTableRecord
  2
LONG_DASHED
 70
     0
  3
Long_Dashed
 72
    65
 73
     2
 40
15.0
 49
10.0
 74
     0
 49
-5.0
 74
     0
  0
LTYPE
  5
43
330
5
100
AcDbSymbolTableRecord
100
AcDbLinetypeTableRecord
  2
DASH_CENTER
 70
     0
  3
Dash_Center
 72
    65
 73
     4
 40
14.0
 49
11.0
 74
     0
 49
-1.0
 74
     0
 49
1.0
 74
     0
 49
-1.0
 74
     0
  0
LTYPE
  5
44
330
5
100
AcDbSymbolTableRecord
100
AcDbLinetypeTableRecord
  2
PHANTOM
 70
     0
  3
Phantom
 72
    65
 73
     6
 40
13.0
 49
10.0
 74
     0
 49
-1.0
 74
     0
 49
0.0
 74
     0
 49
-1.0
 74
     0
 49
0.0
 74
     0
 49
-1.0
 74
     0
  0
LTYPE
  5
45
330
5
100
AcDbSymbolTableRecord
100
AcDbLinetypeTableRecord
  2
CENTER_DASH_DASH
 70
     0
  3
Center_Dash_Dash
 72
    65
 73
     6
 40
14.0
 49
9.0
 74
     0
 49
-1.0
 74
     0
 49
1.0
 74
     0
 49
-1.0
 74
     0
 49
1.0
 74
     0
 49
-1.0
 74
     0
  0
ENDTAB
  0
TABLE
  2
LAYER
  5
2
330
0
100
AcDbSymbolTable
 70
     3
  0
LAYER
  5
10
330
2
100
AcDbSymbolTableRecord
100
AcDbLayerTableRecord
  2
0
 70
     0
 62
     7
  6
Continuous
370
    -3
390
F
  0
LAYER
  5
46
330
2
100
AcDbSymbolTableRecord
100
AcDbLayerTableRecord
  2
1
 70
     0
 62
     7
  6
Continuous
370
    -3
390
F
  0
LAYER
  5
47
330
2
100
AcDbSymbolTableRecord
100
AcDbLayerTableRecord
  2
9_schriftkopf
 70
     0
 62
     7
  6
Continuous
370
    -3
390
F
  0
ENDTAB
  0
TABLE
  2
STYLE
  5
3
330
0
100
AcDbSymbolTable
 70
     9
  0
STYLE
  5
11
330
3
100
AcDbSymbolTableRecord
100
AcDbTextStyleTableRecord
  2
Standard
 70
     0
 40
0.0
 41
1.0
 50
0.0
 71
     0
 42
0.2
  3
txt
  4

  0
STYLE
  5
128
330
3
100
AcDbSymbolTableRecord
100
AcDbTextStyleTableRecord
  2
CONVERTER_11
 70
     0
 40
0.0
 41
0.9
 50
0.0
 71
     0
 42
0.2
  3
txt.shx
  4

  0
STYLE
  5
439
330
3
100
AcDbSymbolTableRecord
100
AcDbTextStyleTableRecord
  2
CONVERTER_12
 70
     0
 40
0.0
 41
0.675
 50
0.0
 71
     0
 42
0.2
  3
txt.shx
  4

  0
STYLE
  5
43B
330
3
100
AcDbSymbolTableRecord
100
AcDbTextStyleTableRecord
  2
CONVERTER_13
 70
     0
 40
0.0
 41
0.72
 50
0.0
 71
     0
 42
0.2
  3
txt.shx
  4

  0
STYLE
  5
43D
330
3
100
AcDbSymbolTableRecord
100
AcDbTextStyleTableRecord
  2
CONVERTER_14
 70
     0
 40
0.0
 41
0.63
 50
0.0
 71
     0
 42
0.2
  3
txt.shx
  4

  0
STYLE
  5
440
330
3
100
AcDbSymbolTableRecord
100
AcDbTextStyleTableRecord
  2
CONVERTER_15
 70
     0
 40
0.0
 41
1.0
 50
0.0
 71
     0
 42
0.2
  3
txt.shx
  4

  0
STYLE
  5
45C
330
3
100
AcDbSymbolTableRecord
100
AcDbTextStyleTableRecord
  2
CONVERTER_16
 70
     0
 40
0.0
 41
0.81
 50
0.0
 71
     0
 42
0.2
  3
txt.shx
  4

  0
STYLE
  5
461
330
3
100
AcDbSymbolTableRecord
100
AcDbTextStyleTableRecord
  2
CONVERTER_17
 70
     0
 40
0.0
 41
0.702
 50
0.0
 71
     0
 42
0.2
  3
txt.shx
  4

  0
STYLE
  5
470
330
3
100
AcDbSymbolTableRecord
100
AcDbTextStyleTableRecord
  2
CONVERTER_18
 70
     0
 40
0.0
 41
0.585
 50
0.0
 71
     0
 42
0.2
  3
txt.shx
  4

  0
ENDTAB
  0
TABLE
  2
VIEW
  5
6
330
0
100
AcDbSymbolTable
 70
     0
  0
ENDTAB
  0
TABLE
  2
UCS
  5
7
330
0
100
AcDbSymbolTable
 70
     0
  0
ENDTAB
  0
TABLE
  2
APPID
  5
9
330
0
100
AcDbSymbolTable
 70
     1
  0
APPID
  5
12
330
9
100
AcDbSymbolTableRecord
100
AcDbRegAppTableRecord
  2
ACAD
 70
     0
  0
ENDTAB
  0
TABLE
  2
DIMSTYLE
  5
A
330
0
100
AcDbSymbolTable
 70
    17
100
AcDbDimStyleTable
  0
DIMSTYLE
105
27
330
A
100
AcDbSymbolTableRecord
100
AcDbDimStyleTableRecord
  2
Standard
 70
     0
178
     0
340
11
  0
DIMSTYLE
105
134
102
{ACAD_REACTORS
330
135
102
}
330
A
100
AcDbSymbolTableRecord
100
AcDbDimStyleTableRecord
  2
ME10_DIM_10
 70
     0
 41
2.25
 42
0.0
 44
0.5
 73
     0
 74
     0
 77
     1
 78
     8
140
2.5
147
1.0
172
     1
173
     1
174
     1
175
     1
176
     2
177
     2
271
     0
178
     2
271
     0
340
128
  0
DIMSTYLE
105
13F
102
{ACAD_REACTORS
330
140
102
}
330
A
100
AcDbSymbolTableRecord
100
AcDbDimStyleTableRecord
  2
ME10_DIM_11
 70
     0
 41
2.25
 42
0.0
 44
0.5
 73
     0
 74
     0
 77
     1
 78
     8
140
2.5
147
1.0
172
     1
173
     1
174
     1
175
     1
176
     2
177
     2
271
     2
178
     2
271
     2
340
128
  0
DIMSTYLE
105
14A
102
{ACAD_REACTORS
330
14B
102
}
330
A
100
AcDbSymbolTableRecord
100
AcDbDimStyleTableRecord
  2
ME10_DIM_12
 70
     0
 41
2.25
 42
0.0
 44
0.5
 73
     0
 74
     0
 77
     1
 78
     8
140
2.5
147
1.0
172
     1
173
     1
174
     1
175
     1
176
     2
177
     2
271
     2
178
     2
271
     2
340
128
  0
DIMSTYLE
105
156
102
{ACAD_REACTORS
330
157
102
}
330
A
100
AcDbSymbolTableRecord
100
AcDbDimStyleTableRecord
  2
ME10_DIM_13
 70
     0
 41
2.25
 42
0.0
 44
0.5
 73
     0
 74
     0
 77
     1
 78
     8
140
2.5
147
1.0
172
     1
173
     1
174
     1
175
     1
176
     2
177
     2
271
     2
178
     2
271
     2
340
128
  0
DIMSTYLE
105
206
102
{ACAD_REACTORS
330
207
102
}
330
A
100
AcDbSymbolTableRecord
100
AcDbDimStyleTableRecord
  2
ME10_DIM_14
 70
     0
 41
2.25
 42
0.0
 44
0.5
 73
     0
 74
     0
 77
     1
 78
     8
140
2.5
147
1.0
172
     1
173
     1
174
     1
175
     1
176
     2
177
     2
271
     2
178
     2
271
     2
340
128
  0
DIMSTYLE
105
211
102
{ACAD_REACTORS
330
212
102
}
330
A
100
AcDbSymbolTableRecord
100
AcDbDimStyleTableRecord
  2
ME10_DIM_15
 70
     0
 41
2.25
 42
0.0
 44
0.5
 73
     0
 74
     0
 77
     1
 78
     8
140
2.5
147
1.0
172
     1
173
     1
174
     1
175
     1
176
     2
177
     2
271
     2
178
     2
271
     2
340
128
  0
DIMSTYLE
105
21C
102
{ACAD_REACTORS
330
21D
102
}
330
A
100
AcDbSymbolTableRecord
100
AcDbDimStyleTableRecord
  2
ME10_DIM_16
 70
     0
 41
2.25
 42
0.0
 44
0.5
 73
     0
 74
     0
 77
     1
 78
     8
140
2.5
147
1.0
172
     1
173
     1
174
     1
175
     1
176
     2
177
     2
271
     2
178
     2
271
     2
340
128
  0
DIMSTYLE
105
227
102
{ACAD_REACTORS
330
228
102
}
330
A
100
AcDbSymbolTableRecord
100
AcDbDimStyleTableRecord
  2
ME10_DIM_17
 70
     0
 41
2.25
 42
0.0
 44
0.5
 73
     0
 74
     0
 77
     1
 78
     8
140
2.5
147
1.0
172
     1
173
     1
174
     1
175
     1
176
     2
177
     2
271
     2
178
     2
271
     2
340
128
  0
DIMSTYLE
105
2D7
102
{ACAD_REACTORS
330
2D8
102
}
330
A
100
AcDbSymbolTableRecord
100
AcDbDimStyleTableRecord
  2
ME10_DIM_18
 70
     0
 41
2.25
 42
0.0
 44
0.5
 73
     0
 74
     0
 77
     1
 78
     8
140
2.5
147
1.0
172
     1
173
     1
174
     1
175
     1
176
     2
177
     2
271
     2
178
     2
271
     2
340
128
  0
DIMSTYLE
105
2E2
102
{ACAD_REACTORS
330
2E3
102
}
330
A
100
AcDbSymbolTableRecord
100
AcDbDimStyleTableRecord
  2
ME10_DIM_19
 70
     0
 41
2.25
 42
0.0
 44
0.5
 73
     0
 74
     0
 77
     1
 78
     8
140
2.5
147
1.0
172
     1
173
     1
174
     1
175
     1
176
     2
177
     2
271
     2
178
     2
271
     2
340
128
  0
DIMSTYLE
105
2ED
102
{ACAD_REACTORS
330
2EE
102
}
330
A
100
AcDbSymbolTableRecord
100
AcDbDimStyleTableRecord
  2
ME10_DIM_20
 70
     0
 41
2.25
 42
0.0
 44
0.5
 73
     0
 74
     0
 77
     1
 78
     8
140
2.5
147
1.0
172
     1
173
     1
174
     1
175
     1
176
     2
177
     2
271
     2
178
     2
271
     2
340
128
  0
DIMSTYLE
105
2F8
102
{ACAD_REACTORS
330
2F9
102
}
330
A
100
AcDbSymbolTableRecord
100
AcDbDimStyleTableRecord
  2
ME10_DIM_21
 70
     0
 41
2.25
 42
0.0
 44
0.5
 73
     0
 74
     0
 77
     1
 78
     8
140
2.5
147
1.0
172
     1
173
     1
174
     1
175
     1
176
     2
177
     2
271
     2
178
     2
271
     2
340
128
  0
DIMSTYLE
105
3A8
102
{ACAD_REACTORS
330
3A9
102
}
330
A
100
AcDbSymbolTableRecord
100
AcDbDimStyleTableRecord
  2
ME10_DIM_22
 70
     0
 41
2.25
 42
0.0
 44
0.5
 73
     0
 74
     0
 77
     1
 78
     8
140
2.5
147
1.0
172
     1
173
     1
174
     1
175
     1
176
     2
177
     2
271
     2
178
     2
271
     2
340
128
  0
DIMSTYLE
105
3B3
102
{ACAD_REACTORS
330
3B4
102
}
330
A
100
AcDbSymbolTableRecord
100
AcDbDimStyleTableRecord
  2
ME10_DIM_23
 70
     0
 41
2.25
 42
0.0
 44
0.5
 73
     0
 74
     0
 77
     1
 78
     8
140
2.5
147
1.0
172
     1
173
     1
174
     1
175
     1
176
     2
177
     2
271
     2
178
     2
271
     2
340
128
  0
DIMSTYLE
105
3BE
102
{ACAD_REACTORS
330
3BF
102
}
330
A
100
AcDbSymbolTableRecord
100
AcDbDimStyleTableRecord
  2
ME10_DIM_24
 70
     0
 41
2.25
 42
0.0
 44
0.5
 73
     0
 74
     0
 77
     1
 78
     8
140
2.5
147
1.0
172
     1
173
     1
174
     1
175
     1
176
     2
177
     2
271
     2
178
     2
271
     2
340
128
  0
DIMSTYLE
105
3C9
102
{ACAD_REACTORS
330
3CA
102
}
330
A
100
AcDbSymbolTableRecord
100
AcDbDimStyleTableRecord
  2
ME10_DIM_25
 70
     0
 41
2.25
 42
0.0
 44
0.5
 73
     0
 74
     0
 77
     1
 78
     8
140
2.5
147
1.0
172
     1
173
     1
174
     1
175
     1
176
     2
177
     2
271
     2
178
     2
271
     2
340
128
  0
ENDTAB
  0
TABLE
  2
BLOCK_RECORD
  5
1
330
0
100
AcDbSymbolTable
 70
    46
  0
BLOCK_RECORD
  5
1F
330
1
100
AcDbSymbolTableRecord
100
AcDbBlockTableRecord
  2
*Model_Space
340
22
  0
BLOCK_RECORD
  5
1B
330
1
100
AcDbSymbolTableRecord
100
AcDbBlockTableRecord
  2
*Paper_Space
340
1E
  0
BLOCK_RECORD
  5
23
330
1
100
AcDbSymbolTableRecord
100
AcDbBlockTableRecord
  2
*Paper_Space0
340
26
  0
BLOCK_RECORD
  5
48
330
1
100
AcDbSymbolTableRecord
100
AcDbBlockTableRecord
  2
fenorm_aluminium_C0__1
340
0
102
{BLKREFS
331
59
102
}
  0
BLOCK_RECORD
  5
4B
330
1
100
AcDbSymbolTableRecord
100
AcDbBlockTableRecord
  2
grundkoerper__2
340
0
102
{BLKREFS
331
4F
102
}
  0
BLOCK_RECORD
  5
4E
330
1
100
AcDbSymbolTableRecord
100
AcDbBlockTableRecord
  2
SlideAlu_L_LI_Rev04__3
340
0
102
{BLKREFS
331
5A
102
}
  0
BLOCK_RECORD
  5
52
330
1
100
AcDbSymbolTableRecord
100
AcDbBlockTableRecord
  2
SAW22_Rev01_bauteil__ausgeklinkt_1__4
340
0
102
{BLKREFS
331
5B
102
}
  0
BLOCK_RECORD
  5
55
330
1
100
AcDbSymbolTableRecord
100
AcDbBlockTableRecord
  2
Dichtung01_1_1_1
340
0
102
{BLKREFS
331
5C
102
}
  0
BLOCK_RECORD
  5
58
330
1
100
AcDbSymbolTableRecord
100
AcDbBlockTableRecord
  2
SlideAlu_L_40mm
340
0
102
{BLKREFS
331
60
102
}
  0
BLOCK_RECORD
  5
5F
330
1
100
AcDbSymbolTableRecord
100
AcDbBlockTableRecord
  2
Vordans2
340
0
102
{BLKREFS
331
B7
102
}
  0
BLOCK_RECORD
  5
63
330
1
100
AcDbSymbolTableRecord
100
AcDbBlockTableRecord
  2
fenorm_aluminium_C0__5
340
0
102
{BLKREFS
331
74
102
}
  0
BLOCK_RECORD
  5
66
330
1
100
AcDbSymbolTableRecord
100
AcDbBlockTableRecord
  2
grundkoerper__6
340
0
102
{BLKREFS
331
6A
102
}
  0
BLOCK_RECORD
  5
69
330
1
100
AcDbSymbolTableRecord
100
AcDbBlockTableRecord
  2
SlideAlu_L_LI_Rev04__7
340
0
102
{BLKREFS
331
75
102
}
  0
BLOCK_RECORD
  5
6D
330
1
100
AcDbSymbolTableRecord
100
AcDbBlockTableRecord
  2
SAW22_Rev01_bauteil__ausgeklinkt_1__8
340
0
102
{BLKREFS
331
76
102
}
  0
BLOCK_RECORD
  5
70
330
1
100
AcDbSymbolTableRecord
100
AcDbBlockTableRecord
  2
Dichtung01_1_1_1_1
340
0
102
{BLKREFS
331
77
102
}
  0
BLOCK_RECORD
  5
73
330
1
100
AcDbSymbolTableRecord
100
AcDbBlockTableRecord
  2
SlideAlu_L_45mm
340
0
102
{BLKREFS
331
7B
102
}
  0
BLOCK_RECORD
  5
7A
330
1
100
AcDbSymbolTableRecord
100
AcDbBlockTableRecord
  2
Std_SlideAlu_U45
340
0
102
{BLKREFS
331
B8
102
}
  0
BLOCK_RECORD
  5
7E
330
1
100
AcDbSymbolTableRecord
100
AcDbBlockTableRecord
  2
fenorm_aluminium_C0__9
340
0
102
{BLKREFS
331
8F
102
}
  0
BLOCK_RECORD
  5
81
330
1
100
AcDbSymbolTableRecord
100
AcDbBlockTableRecord
  2
SAW22_Rev01_bauteil__ausgeklinkt_1__10
340
0
102
{BLKREFS
331
90
102
}
  0
BLOCK_RECORD
  5
84
330
1
100
AcDbSymbolTableRecord
100
AcDbBlockTableRecord
  2
grundkoerper__11
340
0
102
{BLKREFS
331
88
102
}
  0
BLOCK_RECORD
  5
87
330
1
100
AcDbSymbolTableRecord
100
AcDbBlockTableRecord
  2
SlideAlu_L_LI_Rev04__12
340
0
102
{BLKREFS
331
91
102
}
  0
BLOCK_RECORD
  5
8B
330
1
100
AcDbSymbolTableRecord
100
AcDbBlockTableRecord
  2
Dichtung01_1
340
0
102
{BLKREFS
331
92
102
}
  0
BLOCK_RECORD
  5
8E
330
1
100
AcDbSymbolTableRecord
100
AcDbBlockTableRecord
  2
SlideAlu_L_22mm
340
0
102
{BLKREFS
331
96
102
}
  0
BLOCK_RECORD
  5
95
330
1
100
AcDbSymbolTableRecord
100
AcDbBlockTableRecord
  2
Std_SlideAlu_U22
340
0
102
{BLKREFS
331
B9
102
}
  0
BLOCK_RECORD
  5
99
330
1
100
AcDbSymbolTableRecord
100
AcDbBlockTableRecord
  2
SAW22_Rev01_bauteil__ausgeklinkt_1__13
340
0
102
{BLKREFS
331
AA
102
}
  0
BLOCK_RECORD
  5
9C
330
1
100
AcDbSymbolTableRecord
100
AcDbBlockTableRecord
  2
fenorm_aluminium_C0__14
340
0
102
{BLKREFS
331
AB
102
}
  0
BLOCK_RECORD
  5
9F
330
1
100
AcDbSymbolTableRecord
100
AcDbBlockTableRecord
  2
grundkoerper__15
340
0
102
{BLKREFS
331
A3
102
}
  0
BLOCK_RECORD
  5
A2
330
1
100
AcDbSymbolTableRecord
100
AcDbBlockTableRecord
  2
SlideAlu_L_LI_Rev04__16
340
0
102
{BLKREFS
331
AC
102
}
  0
BLOCK_RECORD
  5
A6
330
1
100
AcDbSymbolTableRecord
100
AcDbBlockTableRecord
  2
Dichtung01_1_1
340
0
102
{BLKREFS
331
AD
102
}
  0
BLOCK_RECORD
  5
A9
330
1
100
AcDbSymbolTableRecord
100
AcDbBlockTableRecord
  2
SlideAlu_L_34mm
340
0
102
{BLKREFS
331
B1
102
}
  0
BLOCK_RECORD
  5
B0
330
1
100
AcDbSymbolTableRecord
100
AcDbBlockTableRecord
  2
Std_SlideAlu_U34
340
0
102
{BLKREFS
331
BA
102
}
  0
BLOCK_RECORD
  5
B4
330
1
100
AcDbSymbolTableRecord
100
AcDbBlockTableRecord
  2
A4_Hoch__17
340
0
102
{BLKREFS
331
BB
102
}
  0
BLOCK_RECORD
  5
12B
330
1
100
AcDbSymbolTableRecord
100
AcDbBlockTableRecord
  2
*D30
340
0
  0
BLOCK_RECORD
  5
136
330
1
100
AcDbSymbolTableRecord
100
AcDbBlockTableRecord
  2
*D31
340
0
  0
BLOCK_RECORD
  5
141
330
1
100
AcDbSymbolTableRecord
100
AcDbBlockTableRecord
  2
*D32
340
0
  0
BLOCK_RECORD
  5
14C
330
1
100
AcDbSymbolTableRecord
100
AcDbBlockTableRecord
  2
*D33
340
0
  0
BLOCK_RECORD
  5
1FC
330
1
100
AcDbSymbolTableRecord
100
AcDbBlockTableRecord
  2
*D34
340
0
  0
BLOCK_RECORD
  5
208
330
1
100
AcDbSymbolTableRecord
100
AcDbBlockTableRecord
  2
*D35
340
0
  0
BLOCK_RECORD
  5
213
330
1
100
AcDbSymbolTableRecord
100
AcDbBlockTableRecord
  2
*D36
340
0
  0
BLOCK_RECORD
  5
21E
330
1
100
AcDbSymbolTableRecord
100
AcDbBlockTableRecord
  2
*D37
340
0
  0
BLOCK_RECORD
  5
2CD
330
1
100
AcDbSymbolTableRecord
100
AcDbBlockTableRecord
  2
*D38
340
0
  0
BLOCK_RECORD
  5
2D9
330
1
100
AcDbSymbolTableRecord
100
AcDbBlockTableRecord
  2
*D39
340
0
  0
BLOCK_RECORD
  5
2E4
330
1
100
AcDbSymbolTableRecord
100
AcDbBlockTableRecord
  2
*D40
340
0
  0
BLOCK_RECORD
  5
2EF
330
1
100
AcDbSymbolTableRecord
100
AcDbBlockTableRecord
  2
*D41
340
0
  0
BLOCK_RECORD
  5
39E
330
1
100
AcDbSymbolTableRecord
100
AcDbBlockTableRecord
  2
*D42
340
0
  0
BLOCK_RECORD
  5
3AA
330
1
100
AcDbSymbolTableRecord
100
AcDbBlockTableRecord
  2
*D43
340
0
  0
BLOCK_RECORD
  5
3B5
330
1
100
AcDbSymbolTableRecord
100
AcDbBlockTableRecord
  2
*D44
340
0
  0
BLOCK_RECORD
  5
3C0
330
1
100
AcDbSymbolTableRecord
100
AcDbBlockTableRecord
  2
*D45
340
0
  0
ENDTAB
  0
ENDSEC
  0
SECTION
  2
BLOCKS
  0
BLOCK
  5
20
330
1F
100
AcDbEntity
  8
0
100
AcDbBlockBegin
  2
*Model_Space
 70
     0
 10
0.0
 20
0.0
 30
0.0
  3
*Model_Space
  1

  0
ENDBLK
  5
21
330
1F
100
AcDbEntity
  8
0
100
AcDbBlockEnd
  0
BLOCK
  5
1C
330
1B
100
AcDbEntity
 67
     1
  8
0
100
AcDbBlockBegin
  2
*Paper_Space
 70
     0
 10
0.0
 20
0.0
 30
0.0
  3
*Paper_Space
  1

  0
ENDBLK
  5
1D
330
1B
100
AcDbEntity
 67
     1
  8
0
100
AcDbBlockEnd
  0
BLOCK
  5
24
330
23
100
AcDbEntity
  8
0
100
AcDbBlockBegin
  2
*Paper_Space0
 70
     0
 10
0.0
 20
0.0
 30
0.0
  3
*Paper_Space0
  1

  0
ENDBLK
  5
25
330
23
100
AcDbEntity
  8
0
100
AcDbBlockEnd
  0
BLOCK
  5
49
330
48
100
AcDbEntity
  8
0
100
AcDbBlockBegin
  2
fenorm_aluminium_C0__1
 70
     0
 10
50.54999957068652
 20
139.8406649184223
 30
0.0
  3
fenorm_aluminium_C0__1
  1

  0
LINE
  5
BC
330
48
100
AcDbEntity
  8
0
  6
Continuous
 62
     7
100
AcDbLine
 10
160.5499995706866
 20
141.3326192140272
 30
0.0
 11
50.54999957068652
 21
141.3326192140278
 31
0.0
  0
LINE
  5
BD
330
48
100
AcDbEntity
  8
0
  6
Continuous
 62
     7
100
AcDbLine
 10
50.54999957068652
 20
139.8406649184229
 30
0.0
 11
50.54999957068652
 21
141.3326192140278
 31
0.0
  0
LINE
  5
BE
330
48
100
AcDbEntity
  8
0
  6
Continuous
 62
     7
100
AcDbLine
 10
50.54999957068652
 20
139.8406649184229
 30
0.0
 11
119.1781986687521
 21
139.8406649184227
 31
0.0
  0
LINE
  5
BF
330
48
100
AcDbEntity
  8
0
  6
Continuous
 62
     7
100
AcDbLine
 10
120.7032865538121
 20
139.8406649184227
 30
0.0
 11
160.5499995706866
 21
139.8406649184223
 31
0.0
  0
LINE
  5
C0
330
48
100
AcDbEntity
  8
0
  6
Continuous
 62
     7
100
AcDbLine
 10
119.1781986687521
 20
139.8406649184227
 30
0.0
 11
120.7032865538121
 21
139.8406649184227
 31
0.0
  0
LINE
  5
C1
330
48
100
AcDbEntity
  8
0
  6
Continuous
 62
     7
100
AcDbLine
 10
160.5499995706866
 20
141.3326192140272
 30
0.0
 11
160.5499995706866
 21
139.8406649184223
 31
0.0
  0
ENDBLK
  5
4A
330
48
100
AcDbEntity
  8
0
100
AcDbBlockEnd
  0
BLOCK
  5
4C
330
4B
100
AcDbEntity
  8
0
100
AcDbBlockBegin
  2
grundkoerper__2
 70
     0
 10
107.5499995706864
 20
134.6406651142139
 30
0.0
  3
grundkoerper__2
  1

  0
LINE
  5
C2
330
4B
100
AcDbEntity
  8
0
  6
Continuous
 62
     7
100
AcDbLine
 10
165.5499995706863
 20
164.158729820071
 30
0.0
 11
165.5499995706863
 21
154.1593371249735
 31
0.0
  0
LINE
  5
C3
330
4B
100
AcDbEntity
  8
0
  6
Continuous
 62
     7
100
AcDbLine
 10
164.0999995706864
 20
136.0906651142144
 30
0.0
 11
164.0999995706864
 21
138.8406651142136
 31
0.0
  0
LINE
  5
C4
330
4B
100
AcDbEntity
  8
0
  6
Continuous
 62
     7
100
AcDbLine
 10
165.5499995706864
 20
164.1593555860509
 30
0.0
 11
167.5499995706864
 21
164.1593555860509
 31
0.0
  0
LINE
  5
C5
330
4B
100
AcDbEntity
  8
0
  6
Continuous
 62
     7
100
AcDbLine
 10
165.5499995706863
 20
154.158727862157
 30
0.0
 11
165.5499995706864
 21
138.8406651142136
 31
0.0
  0
LINE
  5
C6
330
4B
100
AcDbEntity
  8
0
  6
Continuous
 62
     7
100
AcDbLine
 10
165.5499995706864
 20
164.1593555860509
 30
0.0
 11
165.5499995706863
 21
164.1593351670599
 31
0.0
  0
LINE
  5
C7
330
4B
100
AcDbEntity
  8
0
  6
Continuous
 62
     7
100
AcDbLine
 10
165.5499995706863
 20
154.1593371249735
 30
0.0
 11
165.5499995706863
 21
154.158727862157
 31
0.0
  0
LINE
  5
C8
330
4B
100
AcDbEntity
  8
0
  6
Continuous
 62
     7
100
AcDbLine
 10
165.5499995706863
 20
164.1593351670599
 30
0.0
 11
165.5499995706863
 21
164.158729820071
 31
0.0
  0
LINE
  5
C9
330
4B
100
AcDbEntity
  8
0
  6
Continuous
 62
     7
100
AcDbLine
 10
164.0999995706864
 20
138.8406651142136
 30
0.0
 11
165.5499995706864
 21
138.8406651142136
 31
0.0
  0
LINE
  5
CA
330
4B
100
AcDbEntity
  8
0
  6
Continuous
 62
     7
100
AcDbLine
 10
167.5499995706864
 20
164.1593555860509
 30
0.0
 11
167.5499995706864
 21
134.6406651142139
 31
0.0
  0
LINE
  5
CB
330
4B
100
AcDbEntity
  8
0
  6
Continuous
 62
     7
100
AcDbLine
 10
107.5499995706864
 20
134.6406651142139
 30
0.0
 11
167.5499995706864
 21
134.6406651142139
 31
0.0
  0
LINE
  5
CC
330
4B
100
AcDbEntity
  8
0
  6
Continuous
 62
     7
100
AcDbLine
 10
123.9999995706864
 20
136.0906651142138
 30
0.0
 11
123.8749995706864
 21
136.0906651142145
 31
0.0
  0
LINE
  5
CD
330
4B
100
AcDbEntity
  8
0
  6
Continuous
 62
     7
100
AcDbLine
 10
123.8749995706864
 20
136.0906651142145
 30
0.0
 11
116.6249995706864
 21
136.0906651142145
 31
0.0
  0
LINE
  5
CE
330
4B
100
AcDbEntity
  8
0
  6
Continuous
 62
     7
100
AcDbLine
 10
129.0499995706864
 20
136.0906651142144
 30
0.0
 11
125.4499995706863
 21
136.0906651142144
 31
0.0
  0
LINE
  5
CF
330
4B
100
AcDbEntity
  8
0
  6
Continuous
 62
     7
100
AcDbLine
 10
142.7999995706864
 20
136.0906651142139
 30
0.0
 11
130.2999995706864
 21
136.0906651142139
 31
0.0
  0
LINE
  5
D0
330
4B
100
AcDbEntity
  8
0
  6
Continuous
 62
     7
100
AcDbLine
 10
147.6499995706864
 20
136.0906651142144
 30
0.0
 11
144.0499995706864
 21
136.0906651142139
 31
0.0
  0
LINE
  5
D1
330
4B
100
AcDbEntity
  8
0
  6
Continuous
 62
     7
100
AcDbLine
 10
156.5999995706864
 20
136.0906651142144
 30
0.0
 11
149.0999995706864
 21
136.0906651142144
 31
0.0
  0
LINE
  5
D2
330
4B
100
AcDbEntity
  8
0
  6
Continuous
 62
     7
100
AcDbLine
 10
164.0999995706864
 20
136.0906651142144
 30
0.0
 11
158.0499995706864
 21
136.0906651142144
 31
0.0
  0
LINE
  5
D3
330
4B
100
AcDbEntity
  8
0
  6
Continuous
 62
     7
100
AcDbLine
 10
116.6249995706864
 20
136.0906651142145
 30
0.0
 11
116.4999995706864
 21
136.0906651142144
 31
0.0
  0
LINE
  5
D4
330
4B
100
AcDbEntity
  8
0
  6
Continuous
 62
     7
100
AcDbLine
 10
115.0499995706864
 20
136.0906651142144
 30
0.0
 11
108.9999995706864
 21
136.0906651142138
 31
0.0
  0
LINE
  5
D5
330
4B
100
AcDbEntity
  8
0
  6
Continuous
 62
     7
100
AcDbLine
 10
125.4499995706863
 20
136.0906651142144
 30
0.0
 11
125.4499995706863
 21
138.8406651142138
 31
0.0
  0
LINE
  5
D6
330
4B
100
AcDbEntity
  8
0
  6
Continuous
 62
     7
100
AcDbLine
 10
129.0499995706864
 20
138.8406651142138
 30
0.0
 11
129.0499995706864
 21
136.0906651142144
 31
0.0
  0
LINE
  5
D7
330
4B
100
AcDbEntity
  8
0
  6
Continuous
 62
     7
100
AcDbLine
 10
130.2999995706864
 20
136.0906651142139
 30
0.0
 11
130.2999995706864
 21
138.8406651142138
 31
0.0
  0
LINE
  5
D8
330
4B
100
AcDbEntity
  8
0
  6
Continuous
 62
     7
100
AcDbLine
 10
142.7999995706864
 20
138.8406651142138
 30
0.0
 11
142.7999995706864
 21
136.0906651142139
 31
0.0
  0
LINE
  5
D9
330
4B
100
AcDbEntity
  8
0
  6
Continuous
 62
     7
100
AcDbLine
 10
144.0499995706864
 20
136.0906651142139
 30
0.0
 11
144.0499995706864
 21
138.8406651142138
 31
0.0
  0
LINE
  5
DA
330
4B
100
AcDbEntity
  8
0
  6
Continuous
 62
     7
100
AcDbLine
 10
147.6499995706864
 20
138.8406651142139
 30
0.0
 11
147.6499995706864
 21
136.0906651142144
 31
0.0
  0
LINE
  5
DB
330
4B
100
AcDbEntity
  8
0
  6
Continuous
 62
     7
100
AcDbLine
 10
150.0999995706864
 20
137.8406651142138
 30
0.0
 11
150.0999995706864
 21
138.8406651142138
 31
0.0
  0
LINE
  5
DC
330
4B
100
AcDbEntity
  8
0
  6
Continuous
 62
     7
100
AcDbLine
 10
123.1249995706864
 20
137.8406651142145
 30
0.0
 11
123.8749995706864
 21
137.8406651142145
 31
0.0
  0
LINE
  5
DD
330
4B
100
AcDbEntity
  8
0
  6
Continuous
 62
     7
100
AcDbLine
 10
116.6249995706864
 20
137.8406651142145
 30
0.0
 11
116.8749995706864
 21
137.8406651142145
 31
0.0
  0
LINE
  5
DE
330
4B
100
AcDbEntity
  8
0
  6
Continuous
 62
     7
100
AcDbLine
 10
116.4999995706864
 20
137.8406651142139
 30
0.0
 11
116.6249995706864
 21
137.8406651142145
 31
0.0
  0
LINE
  5
DF
330
4B
100
AcDbEntity
  8
0
  6
Continuous
 62
     7
100
AcDbLine
 10
122.9999995706864
 20
137.8406651142139
 30
0.0
 11
123.1249995706864
 21
137.8406651142145
 31
0.0
  0
LINE
  5
E0
330
4B
100
AcDbEntity
  8
0
  6
Continuous
 62
     7
100
AcDbLine
 10
115.0499995706864
 20
138.8406651142139
 30
0.0
 11
115.0499995706864
 21
136.0906651142144
 31
0.0
  0
LINE
  5
E1
330
4B
100
AcDbEntity
  8
0
  6
Continuous
 62
     7
100
AcDbLine
 10
123.9999995706864
 20
137.7156651142145
 30
0.0
 11
123.9999995706864
 21
136.2156651142145
 31
0.0
  0
LINE
  5
E2
330
4B
100
AcDbEntity
  8
0
  6
Continuous
 62
     7
100
AcDbLine
 10
123.9999995706864
 20
137.8406651142139
 30
0.0
 11
123.9999995706864
 21
137.7156651142145
 31
0.0
  0
LINE
  5
E3
330
4B
100
AcDbEntity
  8
0
  6
Continuous
 62
     7
100
AcDbLine
 10
116.4999995706864
 20
136.2156651142145
 30
0.0
 11
116.4999995706864
 21
137.7156651142145
 31
0.0
  0
LINE
  5
E4
330
4B
100
AcDbEntity
  8
0
  6
Continuous
 62
     7
100
AcDbLine
 10
116.4999995706864
 20
136.0906651142144
 30
0.0
 11
116.4999995706864
 21
136.2156651142145
 31
0.0
  0
LINE
  5
E5
330
4B
100
AcDbEntity
  8
0
  6
Continuous
 62
     7
100
AcDbLine
 10
108.9999995706864
 20
136.0906651142138
 30
0.0
 11
108.9999995706864
 21
138.8406651142143
 31
0.0
  0
LINE
  5
E6
330
4B
100
AcDbEntity
  8
0
  6
Continuous
 62
     7
100
AcDbLine
 10
107.5499995706864
 20
138.8406651142143
 30
0.0
 11
107.5499995706864
 21
134.6406651142139
 31
0.0
  0
LINE
  5
E7
330
4B
100
AcDbEntity
  8
0
  6
Continuous
 62
     7
100
AcDbLine
 10
158.0499995706864
 20
136.0906651142144
 30
0.0
 11
158.0499995706864
 21
138.8406651142138
 31
0.0
  0
LINE
  5
E8
330
4B
100
AcDbEntity
  8
0
  6
Continuous
 62
     7
100
AcDbLine
 10
107.5499995706864
 20
138.8406651142143
 30
0.0
 11
108.9999995706864
 21
138.8406651142143
 31
0.0
  0
LINE
  5
E9
330
4B
100
AcDbEntity
  8
0
  6
Continuous
 62
     7
100
AcDbLine
 10
117.4999995706864
 20
138.8406651142139
 30
0.0
 11
115.0499995706864
 21
138.8406651142139
 31
0.0
  0
LINE
  5
EA
330
4B
100
AcDbEntity
  8
0
  6
Continuous
 62
     7
100
AcDbLine
 10
125.4499995706863
 20
138.8406651142138
 30
0.0
 11
122.9999995706864
 21
138.8406651142139
 31
0.0
  0
LINE
  5
EB
330
4B
100
AcDbEntity
  8
0
  6
Continuous
 62
     7
100
AcDbLine
 10
130.2999995706864
 20
138.8406651142138
 30
0.0
 11
129.0499995706864
 21
138.8406651142138
 31
0.0
  0
LINE
  5
EC
330
4B
100
AcDbEntity
  8
0
  6
Continuous
 62
     7
100
AcDbLine
 10
144.0499995706864
 20
138.8406651142138
 30
0.0
 11
142.7999995706864
 21
138.8406651142138
 31
0.0
  0
LINE
  5
ED
330
4B
100
AcDbEntity
  8
0
  6
Continuous
 62
     7
100
AcDbLine
 10
150.0999995706864
 20
138.8406651142138
 30
0.0
 11
147.6499995706864
 21
138.8406651142139
 31
0.0
  0
LINE
  5
EE
330
4B
100
AcDbEntity
  8
0
  6
Continuous
 62
     7
100
AcDbLine
 10
158.0499995706864
 20
138.8406651142138
 30
0.0
 11
155.5999995706864
 21
138.8406651142138
 31
0.0
  0
LINE
  5
EF
330
4B
100
AcDbEntity
  8
0
  6
Continuous
 62
     7
100
AcDbLine
 10
116.4999995706864
 20
137.7156651142145
 30
0.0
 11
116.4999995706864
 21
137.8406651142139
 31
0.0
  0
LINE
  5
F0
330
4B
100
AcDbEntity
  8
0
  6
Continuous
 62
     7
100
AcDbLine
 10
123.9999995706864
 20
136.2156651142145
 30
0.0
 11
123.9999995706864
 21
136.0906651142138
 31
0.0
  0
LINE
  5
F1
330
4B
100
AcDbEntity
  8
0
  6
Continuous
 62
     7
100
AcDbLine
 10
149.0999995706864
 20
136.0906651142144
 30
0.0
 11
149.0999995706864
 21
137.8406651142138
 31
0.0
  0
LINE
  5
F2
330
4B
100
AcDbEntity
  8
0
  6
Continuous
 62
     7
100
AcDbLine
 10
156.5999995706864
 20
137.8406651142138
 30
0.0
 11
156.5999995706864
 21
136.0906651142144
 31
0.0
  0
LINE
  5
F3
330
4B
100
AcDbEntity
  8
0
  6
Continuous
 62
     7
100
AcDbLine
 10
155.5999995706864
 20
137.8406651142138
 30
0.0
 11
156.5999995706864
 21
137.8406651142138
 31
0.0
  0
LINE
  5
F4
330
4B
100
AcDbEntity
  8
0
  6
Continuous
 62
     7
100
AcDbLine
 10
149.0999995706864
 20
137.8406651142138
 30
0.0
 11
150.0999995706864
 21
137.8406651142138
 31
0.0
  0
LINE
  5
F5
330
4B
100
AcDbEntity
  8
0
  6
Continuous
 62
     7
100
AcDbLine
 10
116.8749995706864
 20
137.8406651142145
 30
0.0
 11
117.4999995706864
 21
137.8406651142139
 31
0.0
  0
LINE
  5
F6
330
4B
100
AcDbEntity
  8
0
  6
Continuous
 62
     7
100
AcDbLine
 10
117.4999995706864
 20
137.8406651142139
 30
0.0
 11
117.4999995706864
 21
138.8406651142139
 31
0.0
  0
LINE
  5
F7
330
4B
100
AcDbEntity
  8
0
  6
Continuous
 62
     7
100
AcDbLine
 10
123.8749995706864
 20
137.8406651142145
 30
0.0
 11
123.9999995706864
 21
137.8406651142139
 31
0.0
  0
LINE
  5
F8
330
4B
100
AcDbEntity
  8
0
  6
Continuous
 62
     7
100
AcDbLine
 10
155.5999995706864
 20
138.8406651142138
 30
0.0
 11
155.5999995706864
 21
137.8406651142138
 31
0.0
  0
LINE
  5
F9
330
4B
100
AcDbEntity
  8
0
  6
Continuous
 62
     7
100
AcDbLine
 10
122.9999995706864
 20
138.8406651142139
 30
0.0
 11
122.9999995706864
 21
137.8406651142139
 31
0.0
  0
ENDBLK
  5
4D
330
4B
100
AcDbEntity
  8
0
100
AcDbBlockEnd
  0
BLOCK
  5
50
330
4E
100
AcDbEntity
  8
0
100
AcDbBlockBegin
  2
SlideAlu_L_LI_Rev04__3
 70
     0
 10
107.5499995706864
 20
134.6406651142139
 30
0.0
  3
SlideAlu_L_LI_Rev04__3
  1

  0
INSERT
  5
4F
330
4E
100
AcDbEntity
  8
0
100
AcDbBlockReference
  2
grundkoerper__2
 10
107.5499995706864
 20
134.6406651142139
 30
0.0
  0
ENDBLK
  5
51
330
4E
100
AcDbEntity
  8
0
100
AcDbBlockEnd
  0
BLOCK
  5
53
330
52
100
AcDbEntity
  8
0
100
AcDbBlockBegin
  2
SAW22_Rev01_bauteil__ausgeklinkt_1__4
 70
     0
 10
128.8999995706865
 20
154.158727862157
 30
0.0
  3
SAW22_Rev01_bauteil__ausgeklinkt_1__4
  1

  0
LINE
  5
FA
330
52
100
AcDbEntity
  8
0
  6
Continuous
 62
     7
100
AcDbLine
 10
167.8199995706864
 20
163.1593353628512
 30
0.0
 11
167.8999995706864
 21
164.1593351670599
 31
0.0
  0
LINE
  5
FB
330
52
100
AcDbEntity
  8
0
  6
Continuous
 62
     7
100
AcDbLine
 10
165.5499995706863
 20
164.158729820071
 30
0.0
 11
165.5499995706863
 21
154.1593371249735
 31
0.0
  0
LINE
  5
FC
330
52
100
AcDbEntity
  8
0
  6
Continuous
 62
     7
100
AcDbLine
 10
164.3499995706863
 20
154.3587279013153
 30
0.0
 11
164.5499995706863
 21
154.158727862157
 31
0.0
  0
LINE
  5
FD
330
52
100
AcDbEntity
  8
0
  6
Continuous
 62
     7
100
AcDbLine
 10
164.5499995706863
 20
154.1593371249735
 30
0.0
 11
164.3499995706863
 21
154.3593370858152
 31
0.0
  0
LINE
  5
FE
330
52
100
AcDbEntity
  8
0
  6
Continuous
 62
     7
100
AcDbLine
 10
165.5499995706863
 20
154.1593371249735
 30
0.0
 11
165.5499995706863
 21
154.158727862157
 31
0.0
  0
LINE
  5
FF
330
52
100
AcDbEntity
  8
0
  6
Continuous
 62
     7
100
AcDbLine
 10
165.5499995706863
 20
164.1593351670599
 30
0.0
 11
165.5499995706863
 21
164.158729820071
 31
0.0
  0
LINE
  5
100
330
52
100
AcDbEntity
  8
0
  6
Continuous
 62
     7
100
AcDbLine
 10
164.5499995706863
 20
154.158727862157
 30
0.0
 11
165.5499995706863
 21
154.158727862157
 31
0.0
  0
LINE
  5
101
330
52
100
AcDbEntity
  8
0
  6
Continuous
 62
     7
100
AcDbLine
 10
164.5499995706863
 20
154.1593371249735
 30
0.0
 11
164.5499995706863
 21
154.158727862157
 31
0.0
  0
LINE
  5
102
330
52
100
AcDbEntity
  8
0
  6
Continuous
 62
     7
100
AcDbLine
 10
165.5499995706863
 20
154.1593371249735
 30
0.0
 11
164.5499995706863
 21
154.1593371249735
 31
0.0
  0
LINE
  5
103
330
52
100
AcDbEntity
  8
0
  6
Continuous
 62
     7
100
AcDbLine
 10
164.3499995706863
 20
154.3593370858152
 30
0.0
 11
164.3499995706863
 21
164.158729820071
 31
0.0
  0
LINE
  5
104
330
52
100
AcDbEntity
  8
0
  6
Continuous
 62
     7
100
AcDbLine
 10
164.3499995706863
 20
154.3593370858152
 30
0.0
 11
164.3499995706863
 21
154.3587279013153
 31
0.0
  0
LINE
  5
105
330
52
100
AcDbEntity
  8
0
  6
Continuous
 62
     7
100
AcDbLine
 10
164.3499995706863
 20
164.158729820071
 30
0.0
 11
164.3499995706863
 21
164.1593351670599
 31
0.0
  0
LINE
  5
106
330
52
100
AcDbEntity
  8
0
  6
Continuous
 62
     7
100
AcDbLine
 10
167.8199995706864
 20
163.1593353628512
 30
0.0
 11
167.8199995706864
 21
163.1587296242796
 31
0.0
  0
LINE
  5
107
330
52
100
AcDbEntity
  8
0
  6
Continuous
 62
     7
100
AcDbLine
 10
168.8999995706865
 20
163.1587296242796
 30
0.0
 11
167.8199995706864
 21
163.1587296242796
 31
0.0
  0
LINE
  5
108
330
52
100
AcDbEntity
  8
0
  6
Continuous
 62
     7
100
AcDbLine
 10
168.8999995706865
 20
163.1587296242796
 30
0.0
 11
168.8999995706865
 21
163.1593353628512
 31
0.0
  0
LINE
  5
109
330
52
100
AcDbEntity
  8
0
  6
Continuous
 62
     7
100
AcDbLine
 10
167.8199995706864
 20
163.1593353628512
 30
0.0
 11
168.8999995706865
 21
163.1593353628512
 31
0.0
  0
LINE
  5
10A
330
52
100
AcDbEntity
  8
0
  6
Continuous
 62
     7
100
AcDbLine
 10
167.8999995706864
 20
164.1593351670599
 30
0.0
 11
167.5499995706864
 21
164.1593351670599
 31
0.0
  0
LINE
  5
10B
330
52
100
AcDbEntity
  8
0
  6
Continuous
 62
     7
100
AcDbLine
 10
167.5499995706864
 20
164.158729820071
 30
0.0
 11
167.8999511429178
 21
164.158729820071
 31
0.0
  0
LINE
  5
10C
330
52
100
AcDbEntity
  8
0
  6
Continuous
 62
     7
100
AcDbLine
 10
168.8999995706865
 20
165.1593349712685
 30
0.0
 11
168.8999995706865
 21
163.1593353628512
 31
0.0
  0
LINE
  5
10D
330
52
100
AcDbEntity
  8
0
  6
Continuous
 62
     7
100
AcDbLine
 10
168.8999995706865
 20
165.1593349712685
 30
0.0
 11
168.6999995706865
 21
165.3593349321102
 31
0.0
  0
LINE
  5
10E
330
52
100
AcDbEntity
  8
0
  6
Continuous
 62
     7
100
AcDbLine
 10
128.8999995706865
 20
165.3593349321102
 30
0.0
 11
168.6999995706865
 21
165.3593349321102
 31
0.0
  0
LINE
  5
10F
330
52
100
AcDbEntity
  8
0
  6
Continuous
 62
     7
100
AcDbLine
 10
164.3499995706863
 20
164.1593351670599
 30
0.0
 11
128.8999995706865
 21
164.1593351670599
 31
0.0
  0
LINE
  5
110
330
52
100
AcDbEntity
  8
0
  6
Continuous
 62
     7
100
AcDbLine
 10
128.8999995706865
 20
164.1593351670599
 30
0.0
 11
128.8999995706865
 21
164.158729820071
 31
0.0
  0
LINE
  5
111
330
52
100
AcDbEntity
  8
0
  6
Continuous
 62
     7
100
AcDbLine
 10
128.8999995706865
 20
164.158729820071
 30
0.0
 11
164.3499995706863
 21
164.158729820071
 31
0.0
  0
LINE
  5
112
330
52
100
AcDbEntity
  8
0
  6
Continuous
 62
     7
100
AcDbLine
 10
128.8999995706865
 20
164.1593351670599
 30
0.0
 11
128.8999995706865
 21
165.3593349321102
 31
0.0
  0
ENDBLK
  5
54
330
52
100
AcDbEntity
  8
0
100
AcDbBlockEnd
  0
BLOCK
  5
56
330
55
100
AcDbEntity
  8
0
100
AcDbBlockBegin
  2
Dichtung01_1_1_1
 70
     0
 10
116.4999995706864
 20
136.0906651142145
 30
0.0
  3
Dichtung01_1_1_1
  1

  0
LINE
  5
113
330
55
100
AcDbEntity
  8
0
  6
Continuous
 62
     7
100
AcDbLine
 10
119.1781986687521
 20
139.8406649184227
 30
0.0
 11
117.5584884599066
 21
137.9103694580696
 31
0.0
  0
LINE
  5
114
330
55
100
AcDbEntity
  8
0
  6
Continuous
 62
     7
100
AcDbLine
 10
119.1781986687521
 20
139.8406649184227
 30
0.0
 11
120.7032865538121
 21
139.8406649184227
 31
0.0
  0
LINE
  5
115
330
55
100
AcDbEntity
  8
0
  6
Continuous
 62
     7
100
AcDbLine
 10
123.8749995706864
 20
136.0906651142145
 30
0.0
 11
116.6249995706864
 21
136.0906651142145
 31
0.0
  0
LINE
  5
116
330
55
100
AcDbEntity
  8
0
  6
Continuous
 62
     7
100
AcDbLine
 10
117.4999995706864
 20
137.5906651142145
 30
0.0
 11
117.4999995706864
 21
137.7496725556479
 31
0.0
  0
LINE
  5
117
330
55
100
AcDbEntity
  8
0
  6
Continuous
 62
     7
100
AcDbLine
 10
123.1249995706864
 20
137.8406651142145
 30
0.0
 11
123.8749995706864
 21
137.8406651142145
 31
0.0
  0
LINE
  5
118
330
55
100
AcDbEntity
  8
0
  6
Continuous
 62
     7
100
AcDbLine
 10
116.6249995706864
 20
137.8406651142145
 30
0.0
 11
116.8749995706864
 21
137.8406651142145
 31
0.0
  0
LINE
  5
119
330
55
100
AcDbEntity
  8
0
  6
Continuous
 62
     7
100
AcDbLine
 10
119.8680632541387
 20
137.3406651142145
 30
0.0
 11
122.7499995706864
 21
137.3406651142145
 31
0.0
  0
LINE
  5
11A
330
55
100
AcDbEntity
  8
0
  6
Continuous
 62
     7
100
AcDbLine
 10
117.1249995706864
 20
137.5906651142145
 30
0.0
 11
117.4999995706864
 21
137.5906651142145
 31
0.0
  0
LINE
  5
11B
330
55
100
AcDbEntity
  8
0
  6
Continuous
 62
     7
100
AcDbLine
 10
122.9999995706864
 20
137.5906651142145
 30
0.0
 11
122.9999995706864
 21
137.7156651142145
 31
0.0
  0
LINE
  5
11C
330
55
100
AcDbEntity
  8
0
  6
Continuous
 62
     7
100
AcDbLine
 10
123.9999995706864
 20
137.7156651142145
 30
0.0
 11
123.9999995706864
 21
136.2156651142145
 31
0.0
  0
LINE
  5
11D
330
55
100
AcDbEntity
  8
0
  6
Continuous
 62
     7
100
AcDbLine
 10
116.4999995706864
 20
136.2156651142145
 30
0.0
 11
116.4999995706864
 21
137.7156651142145
 31
0.0
  0
LINE
  5
11E
330
55
100
AcDbEntity
  8
0
  6
Continuous
 62
     7
100
AcDbLine
 10
119.4635741914526
 20
138.1345844877972
 30
0.0
 11
120.7032865538121
 21
139.8406649184227
 31
0.0
  0
ARC
  5
11F
330
55
100
AcDbEntity
  8
0
  6
Continuous
 62
     7
100
AcDbCircle
 10
119.8680632541387
 20
137.8406651142145
 30
0.0
 40
0.4999999999999494
100
AcDbArc
 50
143.9962113229984
 51
270.0
  0
ARC
  5
120
330
55
100
AcDbEntity
  8
0
  6
Continuous
 62
     7
100
AcDbCircle
 10
116.8749995706864
 20
137.5906651142145
 30
0.0
 40
0.25
100
AcDbArc
 50
0.0
 51
90.0
  0
ARC
  5
121
330
55
100
AcDbEntity
  8
0
  6
Continuous
 62
     7
100
AcDbCircle
 10
122.7499995706864
 20
137.5906651142145
 30
0.0
 40
0.25
100
AcDbArc
 50
270.0
 51
0.0
  0
ARC
  5
122
330
55
100
AcDbEntity
  8
0
  6
Continuous
 62
     7
100
AcDbCircle
 10
116.6249995706864
 20
137.7156651142145
 30
0.0
 40
0.125
100
AcDbArc
 50
90.0
 51
180.0
  0
ARC
  5
123
330
55
100
AcDbEntity
  8
0
  6
Continuous
 62
     7
100
AcDbCircle
 10
117.7499995706864
 20
137.7496725556479
 30
0.0
 40
0.2500000000000875
100
AcDbArc
 50
139.9999999999958
 51
180.0
  0
ARC
  5
124
330
55
100
AcDbEntity
  8
0
  6
Continuous
 62
     7
100
AcDbCircle
 10
123.1249995706864
 20
137.7156651142145
 30
0.0
 40
0.125
100
AcDbArc
 50
90.0
 51
180.0
  0
ARC
  5
125
330
55
100
AcDbEntity
  8
0
  6
Continuous
 62
     7
100
AcDbCircle
 10
123.8749995706864
 20
137.7156651142145
 30
0.0
 40
0.125
100
AcDbArc
 50
0.0
 51
90.0
  0
ARC
  5
126
330
55
100
AcDbEntity
  8
0
  6
Continuous
 62
     7
100
AcDbCircle
 10
123.8749995706864
 20
136.2156651142145
 30
0.0
 40
0.125
100
AcDbArc
 50
270.0
 51
0.0
  0
ARC
  5
127
330
55
100
AcDbEntity
  8
0
  6
Continuous
 62
     7
100
AcDbCircle
 10
116.6249995706864
 20
136.2156651142145
 30
0.0
 40
0.125
100
AcDbArc
 50
180.0
 51
270.0
  0
ENDBLK
  5
57
330
55
100
AcDbEntity
  8
0
100
AcDbBlockEnd
  0
BLOCK
  5
5D
330
58
100
AcDbEntity
  8
0
100
AcDbBlockBegin
  2
SlideAlu_L_40mm
 70
     0
 10
50.54999957068652
 20
134.6406651142139
 30
0.0
  3
SlideAlu_L_40mm
  1

  0
INSERT
  5
59
330
58
100
AcDbEntity
  8
0
100
AcDbBlockReference
  2
fenorm_aluminium_C0__1
 10
50.54999957068652
 20
139.8406649184223
 30
0.0
  0
INSERT
  5
5A
330
58
100
AcDbEntity
  8
0
100
AcDbBlockReference
  2
SlideAlu_L_LI_Rev04__3
 10
107.5499995706864
 20
134.6406651142139
 30
0.0
  0
INSERT
  5
5B
330
58
100
AcDbEntity
  8
0
100
AcDbBlockReference
  2
SAW22_Rev01_bauteil__ausgeklinkt_1__4
 10
128.8999995706865
 20
154.158727862157
 30
0.0
  0
INSERT
  5
5C
330
58
100
AcDbEntity
  8
0
100
AcDbBlockReference
  2
Dichtung01_1_1_1
 10
116.4999995706864
 20
136.0906651142145
 30
0.0
  0
ENDBLK
  5
5E
330
58
100
AcDbEntity
  8
0
100
AcDbBlockEnd
  0
BLOCK
  5
61
330
5F
100
AcDbEntity
  8
0
100
AcDbBlockBegin
  2
Vordans2
 70
     0
 10
-7.30000000008005
 20
150.0000000002499
 30
0.0
  3
Vordans2
  1

  0
INSERT
  5
60
330
5F
100
AcDbEntity
  8
0
100
AcDbBlockReference
  2
SlideAlu_L_40mm
 10
50.54999957068652
 20
134.6406651142139
 30
0.0
  0
MTEXT
  5
129
330
5F
100
AcDbEntity
  8
1
 62
     7
100
AcDbMText
 10
-7.30000000008005
 20
129.6406651139636
 30
0.0
 40
3.5
 41
0.0
 71
     2
 72
     1
  1
 
  7
CONVERTER_11
 73
     1
 44
1.32052821128451
  0
TEXT
  5
12A
330
5F
100
AcDbEntity
  8
1
 62
     7
100
AcDbText
 10
60.9369007529806
 20
151.974360603643
 30
0.0
 40
3.5
  1
SlideAlu U40
 41
0.9
  7
CONVERTER_11
100
AcDbText
  0
DIMENSION
  5
135
330
5F
100
AcDbEntity
  8
1
100
AcDbDimension
  2
*D30
 10
179.049361158359
 20
134.6406651142138
 30
0.0
 11
176.799361158359
 21
150.000000023162
 31
0.0
 70
    32
  1
<>
 71
     5
 42
-1.0
 53
90.0
  3
ME10_DIM_10
100
AcDbAlignedDimension
 13
168.6999995706865
 23
165.3593349321102
 33
0.0
 14
167.5499995706864
 24
134.6406651142139
 34
0.0
 50
90.0
100
AcDbRotatedDimension
  0
DIMENSION
  5
140
330
5F
100
AcDbEntity
  8
1
100
AcDbDimension
  2
*D31
 10
168.8999995706865
 20
169.629646503745
 30
0.0
 11
148.8999995706865
 21
171.879646503745
 31
0.0
 70
    32
  1
<>
 71
     5
 42
-1.0
 53
0.00013888888889
  3
ME10_DIM_11
100
AcDbAlignedDimension
 13
128.8999995706865
 23
165.3593349321102
 33
0.0
 14
168.8999995706865
 24
165.1593349712685
 34
0.0
100
AcDbRotatedDimension
  0
DIMENSION
  5
14B
330
5F
100
AcDbEntity
  8
1
100
AcDbDimension
  2
*D32
 10
128.8999995706865
 20
157.139967871756
 30
0.0
 11
147.2249995706864
 21
159.389967871756
 31
0.0
 70
    32
  1
36.5
 71
     5
 42
-1.0
 53
0.00013888888889
  3
ME10_DIM_12
100
AcDbAlignedDimension
 13
165.5499995706863
 23
154.158727862157
 33
0.0
 14
128.8999995706865
 24
164.158729820071
 34
0.0
100
AcDbRotatedDimension
  0
DIMENSION
  5
157
330
5F
100
AcDbEntity
  8
1
100
AcDbDimension
  2
*D33
 10
167.5499995706863
 20
131.690677520004
 30
0.0
 11
101.086910244287
 21
133.940677520004
 31
0.0
 70
    33
  1
<>
 71
     5
 42
-1.0
 53
0.00013888888889
  3
ME10_DIM_13
100
AcDbAlignedDimension
 13
107.5499995706864
 23
134.6406651142139
 33
0.0
 14
167.5499995706864
 24
134.6406651142139
 34
0.0
  0
ENDBLK
  5
62
330
5F
100
AcDbEntity
  8
0
100
AcDbBlockEnd
  0
BLOCK
  5
64
330
63
100
AcDbEntity
  8
0
100
AcDbBlockBegin
  2
fenorm_aluminium_C0__5
 70
     0
 10
44.72499995293151
 20
85.44035576182588
 30
0.0
  3
fenorm_aluminium_C0__5
  1

  0
LINE
  5
158
330
63
100
AcDbEntity
  8
0
  6
Continuous
 62
     7
100
AcDbLine
 10
159.7249999529315
 20
86.93231015690132
 30
0.0
 11
159.7249999529315
 21
85.44035615340815
 31
0.0
  0
LINE
  5
159
330
63
100
AcDbEntity
  8
0
  6
Continuous
 62
     7
100
AcDbLine
 10
44.72499995293151
 20
85.44035615340871
 30
0.0
 11
44.72499995293151
 21
86.9323101569019
 31
0.0
  0
LINE
  5
15A
330
63
100
AcDbEntity
  8
0
  6
Continuous
 62
     7
100
AcDbLine
 10
159.7249999529315
 20
86.93231015690132
 30
0.0
 11
44.72499995293151
 21
86.9323101569019
 31
0.0
  0
LINE
  5
15B
330
63
100
AcDbEntity
  8
0
  6
Continuous
 62
     7
100
AcDbLine
 10
44.72499995293151
 20
85.44035615340871
 30
0.0
 11
118.3531990509971
 21
85.44035576182588
 31
0.0
  0
LINE
  5
15C
330
63
100
AcDbEntity
  8
0
  6
Continuous
 62
     7
100
AcDbLine
 10
119.878286936057
 20
85.44035576182588
 30
0.0
 11
159.7249999529315
 21
85.44035615340815
 31
0.0
  0
LINE
  5
15D
330
63
100
AcDbEntity
  8
0
  6
Continuous
 62
     7
100
AcDbLine
 10
118.3531990509971
 20
85.44035576182588
 30
0.0
 11
119.878286936057
 21
85.44035576182588
 31
0.0
  0
ENDBLK
  5
65
330
63
100
AcDbEntity
  8
0
100
AcDbBlockEnd
  0
BLOCK
  5
67
330
66
100
AcDbEntity
  8
0
100
AcDbBlockBegin
  2
grundkoerper__6
 70
     0
 10
106.7249999529314
 20
80.24035697573206
 30
0.0
  3
grundkoerper__6
  1

  0
LINE
  5
15E
330
66
100
AcDbEntity
  8
0
  6
Continuous
 62
     7
100
AcDbLine
 10
164.7249999529314
 20
109.7590416680644
 30
0.0
 11
164.7249999529313
 21
99.75904166801169
 31
0.0
  0
LINE
  5
15F
330
66
100
AcDbEntity
  8
0
  6
Continuous
 62
     7
100
AcDbLine
 10
164.7249999529313
 20
99.75904166801169
 30
0.0
 11
164.7249999529314
 21
84.44098191921302
 31
0.0
  0
LINE
  5
160
330
66
100
AcDbEntity
  8
0
  6
Continuous
 62
     7
100
AcDbLine
 10
166.7249999529314
 20
109.7590416680644
 30
0.0
 11
166.7249999529314
 21
80.24035697573208
 31
0.0
  0
LINE
  5
161
330
66
100
AcDbEntity
  8
0
  6
Continuous
 62
     7
100
AcDbLine
 10
155.7749999529314
 20
83.44035634919967
 30
0.0
 11
155.7749999529314
 21
81.69098245764005
 31
0.0
  0
LINE
  5
162
330
66
100
AcDbEntity
  8
0
  6
Continuous
 62
     7
100
AcDbLine
 10
157.2249999529314
 20
81.69098245764005
 30
0.0
 11
157.2249999529314
 21
84.4403561534083
 31
0.0
  0
LINE
  5
163
330
66
100
AcDbEntity
  8
0
  6
Continuous
 62
     7
100
AcDbLine
 10
163.2749999529314
 20
81.69098245764005
 30
0.0
 11
163.2749999529314
 21
84.44035615340815
 31
0.0
  0
LINE
  5
164
330
66
100
AcDbEntity
  8
0
  6
Continuous
 62
     7
100
AcDbLine
 10
164.7249999529314
 20
84.44098191921302
 30
0.0
 11
164.7249999529314
 21
84.44035615340815
 31
0.0
  0
LINE
  5
165
330
66
100
AcDbEntity
  8
0
  6
Continuous
 62
     7
100
AcDbLine
 10
164.7249999529314
 20
109.7590416680644
 30
0.0
 11
166.7249999529314
 21
109.7590416680644
 31
0.0
  0
LINE
  5
166
330
66
100
AcDbEntity
  8
0
  6
Continuous
 62
     7
100
AcDbLine
 10
106.7249999529314
 20
84.44098191921368
 30
0.0
 11
106.7249999529314
 21
84.4403561534088
 31
0.0
  0
LINE
  5
167
330
66
100
AcDbEntity
  8
0
  6
Continuous
 62
     7
100
AcDbLine
 10
149.2749999529314
 20
84.44035615340835
 30
0.0
 11
146.8249999529314
 21
84.44035615340836
 31
0.0
  0
LINE
  5
168
330
66
100
AcDbEntity
  8
0
  6
Continuous
 62
     7
100
AcDbLine
 10
143.2249999529314
 20
84.44035615340835
 30
0.0
 11
141.9749999529314
 21
84.44035615340835
 31
0.0
  0
LINE
  5
169
330
66
100
AcDbEntity
  8
0
  6
Continuous
 62
     7
100
AcDbLine
 10
154.7749999529314
 20
84.44098191921319
 30
0.0
 11
154.7749999529314
 21
84.44035615340832
 31
0.0
  0
LINE
  5
16A
330
66
100
AcDbEntity
  8
0
  6
Continuous
 62
     7
100
AcDbLine
 10
129.4749999529314
 20
84.44098191921319
 30
0.0
 11
129.4749999529314
 21
84.4403561534083
 31
0.0
  0
LINE
  5
16B
330
66
100
AcDbEntity
  8
0
  6
Continuous
 62
     7
100
AcDbLine
 10
157.2249999529314
 20
84.44098191921319
 30
0.0
 11
157.2249999529314
 21
84.4403561534083
 31
0.0
  0
LINE
  5
16C
330
66
100
AcDbEntity
  8
0
  6
Continuous
 62
     7
100
AcDbLine
 10
163.2749999529314
 20
84.44035615340815
 30
0.0
 11
163.2749999529314
 21
84.44098191921303
 31
0.0
  0
LINE
  5
16D
330
66
100
AcDbEntity
  8
0
  6
Continuous
 62
     7
100
AcDbLine
 10
108.1749999529314
 20
84.44035615340879
 30
0.0
 11
108.1749999529314
 21
84.44098191921367
 31
0.0
  0
LINE
  5
16E
330
66
100
AcDbEntity
  8
0
  6
Continuous
 62
     7
100
AcDbLine
 10
108.1749999529314
 20
84.44098191921367
 30
0.0
 11
106.7249999529314
 21
84.44098191921368
 31
0.0
  0
LINE
  5
16F
330
66
100
AcDbEntity
  8
0
  6
Continuous
 62
     7
100
AcDbLine
 10
122.1749999529314
 20
84.44098191921323
 30
0.0
 11
124.6249999529314
 21
84.44098191921321
 31
0.0
  0
LINE
  5
170
330
66
100
AcDbEntity
  8
0
  6
Continuous
 62
     7
100
AcDbLine
 10
146.8249999529314
 20
84.44098191921324
 30
0.0
 11
149.2749999529314
 21
84.44098191921321
 31
0.0
  0
LINE
  5
171
330
66
100
AcDbEntity
  8
0
  6
Continuous
 62
     7
100
AcDbLine
 10
141.9749999529314
 20
84.44098191921321
 30
0.0
 11
143.2249999529314
 21
84.44098191921323
 31
0.0
  0
LINE
  5
172
330
66
100
AcDbEntity
  8
0
  6
Continuous
 62
     7
100
AcDbLine
 10
164.7249999529314
 20
84.44098191921302
 30
0.0
 11
163.2749999529314
 21
84.44098191921303
 31
0.0
  0
LINE
  5
173
330
66
100
AcDbEntity
  8
0
  6
Continuous
 62
     7
100
AcDbLine
 10
154.7749999529314
 20
84.44098191921319
 30
0.0
 11
157.2249999529314
 21
84.44098191921319
 31
0.0
  0
LINE
  5
174
330
66
100
AcDbEntity
  8
0
  6
Continuous
 62
     7
100
AcDbLine
 10
128.2249999529314
 20
84.44098191921319
 30
0.0
 11
129.4749999529314
 21
84.44098191921319
 31
0.0
  0
LINE
  5
175
330
66
100
AcDbEntity
  8
0
  6
Continuous
 62
     7
100
AcDbLine
 10
141.9749999529314
 20
84.44035615340835
 30
0.0
 11
141.9749999529314
 21
81.69098245763948
 31
0.0
  0
LINE
  5
176
330
66
100
AcDbEntity
  8
0
  6
Continuous
 62
     7
100
AcDbLine
 10
143.2249999529314
 20
81.69098245763948
 30
0.0
 11
143.2249999529314
 21
84.44035615340835
 31
0.0
  0
LINE
  5
177
330
66
100
AcDbEntity
  8
0
  6
Continuous
 62
     7
100
AcDbLine
 10
146.8249999529314
 20
84.44035615340836
 30
0.0
 11
146.8249999529314
 21
81.69098245764005
 31
0.0
  0
LINE
  5
178
330
66
100
AcDbEntity
  8
0
  6
Continuous
 62
     7
100
AcDbLine
 10
148.2749999529314
 20
83.4403563491997
 30
0.0
 11
149.2749999529314
 21
83.4403563491997
 31
0.0
  0
LINE
  5
179
330
66
100
AcDbEntity
  8
0
  6
Continuous
 62
     7
100
AcDbLine
 10
149.2749999529314
 20
83.4403563491997
 30
0.0
 11
149.2749999529314
 21
84.44035615340835
 31
0.0
  0
LINE
  5
17A
330
66
100
AcDbEntity
  8
0
  6
Continuous
 62
     7
100
AcDbLine
 10
149.2749999529314
 20
84.44098191921321
 30
0.0
 11
149.2749999529314
 21
84.44035615340835
 31
0.0
  0
LINE
  5
17B
330
66
100
AcDbEntity
  8
0
  6
Continuous
 62
     7
100
AcDbLine
 10
146.8249999529314
 20
84.44098191921324
 30
0.0
 11
146.8249999529314
 21
84.44035615340836
 31
0.0
  0
LINE
  5
17C
330
66
100
AcDbEntity
  8
0
  6
Continuous
 62
     7
100
AcDbLine
 10
143.2249999529314
 20
84.44098191921323
 30
0.0
 11
143.2249999529314
 21
84.44035615340835
 31
0.0
  0
LINE
  5
17D
330
66
100
AcDbEntity
  8
0
  6
Continuous
 62
     7
100
AcDbLine
 10
141.9749999529314
 20
84.44098191921321
 30
0.0
 11
141.9749999529314
 21
84.44035615340835
 31
0.0
  0
LINE
  5
17E
330
66
100
AcDbEntity
  8
0
  6
Continuous
 62
     7
100
AcDbLine
 10
128.2249999529314
 20
84.44098191921319
 30
0.0
 11
128.2249999529314
 21
84.4403561534083
 31
0.0
  0
LINE
  5
17F
330
66
100
AcDbEntity
  8
0
  6
Continuous
 62
     7
100
AcDbLine
 10
154.7749999529314
 20
84.44035615340832
 30
0.0
 11
154.7749999529314
 21
83.44035634919967
 31
0.0
  0
LINE
  5
180
330
66
100
AcDbEntity
  8
0
  6
Continuous
 62
     7
100
AcDbLine
 10
154.7749999529314
 20
83.44035634919967
 30
0.0
 11
155.7749999529314
 21
83.44035634919967
 31
0.0
  0
LINE
  5
181
330
66
100
AcDbEntity
  8
0
  6
Continuous
 62
     7
100
AcDbLine
 10
148.2749999529314
 20
81.69098245764005
 30
0.0
 11
148.2749999529314
 21
83.4403563491997
 31
0.0
  0
LINE
  5
182
330
66
100
AcDbEntity
  8
0
  6
Continuous
 62
     7
100
AcDbLine
 10
123.1749999529314
 20
83.31535637367435
 30
0.0
 11
123.1749999529314
 21
81.81535666736137
 31
0.0
  0
LINE
  5
183
330
66
100
AcDbEntity
  8
0
  6
Continuous
 62
     7
100
AcDbLine
 10
106.7249999529314
 20
80.24035697573206
 30
0.0
 11
166.7249999529314
 21
80.24035697573208
 31
0.0
  0
LINE
  5
184
330
66
100
AcDbEntity
  8
0
  6
Continuous
 62
     7
100
AcDbLine
 10
123.0499999529314
 20
81.69035669183529
 30
0.0
 11
115.7999999529314
 21
81.69035669183528
 31
0.0
  0
LINE
  5
185
330
66
100
AcDbEntity
  8
0
  6
Continuous
 62
     7
100
AcDbLine
 10
123.1749999529314
 20
81.6903566918346
 30
0.0
 11
123.0499999529314
 21
81.69035669183529
 31
0.0
  0
LINE
  5
186
330
66
100
AcDbEntity
  8
0
  6
Continuous
 62
     7
100
AcDbLine
 10
115.6749999529314
 20
81.69098245764002
 30
0.0
 11
115.7875077170949
 21
81.69098245764002
 31
0.0
  0
LINE
  5
187
330
66
100
AcDbEntity
  8
0
  6
Continuous
 62
     7
100
AcDbLine
 10
143.2249999529314
 20
81.69035669183461
 30
0.0
 11
143.2249999529314
 21
81.69098245763948
 31
0.0
  0
LINE
  5
188
330
66
100
AcDbEntity
  8
0
  6
Continuous
 62
     7
100
AcDbLine
 10
148.2749999529314
 20
81.69035669183516
 30
0.0
 11
148.2749999529314
 21
81.69098245764005
 31
0.0
  0
LINE
  5
189
330
66
100
AcDbEntity
  8
0
  6
Continuous
 62
     7
100
AcDbLine
 10
114.2249999529314
 20
81.69035669183515
 30
0.0
 11
108.1749999529314
 21
81.6903566918346
 31
0.0
  0
LINE
  5
18A
330
66
100
AcDbEntity
  8
0
  6
Continuous
 62
     7
100
AcDbLine
 10
141.9749999529314
 20
81.6903566918346
 30
0.0
 11
129.4749999529314
 21
81.6903566918346
 31
0.0
  0
LINE
  5
18B
330
66
100
AcDbEntity
  8
0
  6
Continuous
 62
     7
100
AcDbLine
 10
163.2749999529314
 20
81.69035669183516
 30
0.0
 11
157.2249999529314
 21
81.69035669183516
 31
0.0
  0
LINE
  5
18C
330
66
100
AcDbEntity
  8
0
  6
Continuous
 62
     7
100
AcDbLine
 10
146.8249999529314
 20
81.69035669183516
 30
0.0
 11
143.2249999529314
 21
81.69035669183461
 31
0.0
  0
LINE
  5
18D
330
66
100
AcDbEntity
  8
0
  6
Continuous
 62
     7
100
AcDbLine
 10
128.2249999529314
 20
81.69035669183515
 30
0.0
 11
124.6249999529314
 21
81.69035669183515
 31
0.0
  0
LINE
  5
18E
330
66
100
AcDbEntity
  8
0
  6
Continuous
 62
     7
100
AcDbLine
 10
115.7999999529314
 20
81.69035669183528
 30
0.0
 11
115.6749999529314
 21
81.69035669183515
 31
0.0
  0
LINE
  5
18F
330
66
100
AcDbEntity
  8
0
  6
Continuous
 62
     7
100
AcDbLine
 10
155.7749999529314
 20
81.69035669183516
 30
0.0
 11
148.2749999529314
 21
81.69035669183516
 31
0.0
  0
LINE
  5
190
330
66
100
AcDbEntity
  8
0
  6
Continuous
 62
     7
100
AcDbLine
 10
146.8249999529314
 20
81.69098245764005
 30
0.0
 11
146.8249999529314
 21
81.69035669183516
 31
0.0
  0
LINE
  5
191
330
66
100
AcDbEntity
  8
0
  6
Continuous
 62
     7
100
AcDbLine
 10
128.2249999529314
 20
81.69098245764003
 30
0.0
 11
128.2249999529314
 21
81.69035669183515
 31
0.0
  0
LINE
  5
192
330
66
100
AcDbEntity
  8
0
  6
Continuous
 62
     7
100
AcDbLine
 10
124.6249999529314
 20
81.69035669183515
 30
0.0
 11
124.6249999529314
 21
81.69098245764003
 31
0.0
  0
LINE
  5
193
330
66
100
AcDbEntity
  8
0
  6
Continuous
 62
     7
100
AcDbLine
 10
115.6749999529314
 20
81.69035669183515
 30
0.0
 11
115.6749999529314
 21
81.69098245764002
 31
0.0
  0
LINE
  5
194
330
66
100
AcDbEntity
  8
0
  6
Continuous
 62
     7
100
AcDbLine
 10
114.2249999529314
 20
81.69098245764002
 30
0.0
 11
114.2249999529314
 21
81.69035669183515
 31
0.0
  0
LINE
  5
195
330
66
100
AcDbEntity
  8
0
  6
Continuous
 62
     7
100
AcDbLine
 10
141.9749999529314
 20
81.69098245763948
 30
0.0
 11
141.9749999529314
 21
81.6903566918346
 31
0.0
  0
LINE
  5
196
330
66
100
AcDbEntity
  8
0
  6
Continuous
 62
     7
100
AcDbLine
 10
129.4749999529314
 20
81.6903566918346
 30
0.0
 11
129.4749999529314
 21
81.69098245763948
 31
0.0
  0
LINE
  5
197
330
66
100
AcDbEntity
  8
0
  6
Continuous
 62
     7
100
AcDbLine
 10
123.1749999529314
 20
81.69098245763946
 30
0.0
 11
123.1749999529314
 21
81.6903566918346
 31
0.0
  0
LINE
  5
198
330
66
100
AcDbEntity
  8
0
  6
Continuous
 62
     7
100
AcDbLine
 10
108.1749999529314
 20
81.6903566918346
 30
0.0
 11
108.1749999529314
 21
81.69098245763946
 31
0.0
  0
LINE
  5
199
330
66
100
AcDbEntity
  8
0
  6
Continuous
 62
     7
100
AcDbLine
 10
124.6249999529314
 20
84.44098191921321
 30
0.0
 11
124.6249999529314
 21
84.44035615340835
 31
0.0
  0
LINE
  5
19A
330
66
100
AcDbEntity
  8
0
  6
Continuous
 62
     7
100
AcDbLine
 10
122.1749999529314
 20
84.44098191921323
 30
0.0
 11
122.1749999529314
 21
84.44035615340836
 31
0.0
  0
LINE
  5
19B
330
66
100
AcDbEntity
  8
0
  6
Continuous
 62
     7
100
AcDbLine
 10
116.6749999529314
 20
84.44098191921327
 30
0.0
 11
116.6749999529314
 21
84.44035615340839
 31
0.0
  0
LINE
  5
19C
330
66
100
AcDbEntity
  8
0
  6
Continuous
 62
     7
100
AcDbLine
 10
114.2249999529314
 20
84.44098191921327
 30
0.0
 11
114.2249999529314
 21
84.4403561534084
 31
0.0
  0
LINE
  5
19D
330
66
100
AcDbEntity
  8
0
  6
Continuous
 62
     7
100
AcDbLine
 10
114.2249999529314
 20
84.44098191921327
 30
0.0
 11
116.6749999529314
 21
84.44098191921327
 31
0.0
  0
LINE
  5
19E
330
66
100
AcDbEntity
  8
0
  6
Continuous
 62
     7
100
AcDbLine
 10
122.1749999529314
 20
84.44035615340836
 30
0.0
 11
122.1749999529314
 21
83.44035634919972
 31
0.0
  0
LINE
  5
19F
330
66
100
AcDbEntity
  8
0
  6
Continuous
 62
     7
100
AcDbLine
 10
115.6749999529314
 20
81.81535666736136
 30
0.0
 11
115.6749999529314
 21
83.31535637367432
 31
0.0
  0
LINE
  5
1A0
330
66
100
AcDbEntity
  8
0
  6
Continuous
 62
     7
100
AcDbLine
 10
116.0499999529314
 20
83.4403563492004
 30
0.0
 11
116.6749999529314
 21
83.44035634919976
 31
0.0
  0
LINE
  5
1A1
330
66
100
AcDbEntity
  8
0
  6
Continuous
 62
     7
100
AcDbLine
 10
115.6749999529314
 20
83.44035634919976
 30
0.0
 11
115.7999999529314
 21
83.4403563492004
 31
0.0
  0
LINE
  5
1A2
330
66
100
AcDbEntity
  8
0
  6
Continuous
 62
     7
100
AcDbLine
 10
115.7999999529314
 20
83.4403563492004
 30
0.0
 11
116.0499999529314
 21
83.4403563492004
 31
0.0
  0
LINE
  5
1A3
330
66
100
AcDbEntity
  8
0
  6
Continuous
 62
     7
100
AcDbLine
 10
115.6749999529314
 20
83.31535637367432
 30
0.0
 11
115.6749999529314
 21
83.3159821394792
 31
0.0
  0
LINE
  5
1A4
330
66
100
AcDbEntity
  8
0
  6
Continuous
 62
     7
100
AcDbLine
 10
129.4749999529314
 20
81.69098245763948
 30
0.0
 11
129.4749999529314
 21
84.4403561534083
 31
0.0
  0
LINE
  5
1A5
330
66
100
AcDbEntity
  8
0
  6
Continuous
 62
     7
100
AcDbLine
 10
116.6749999529314
 20
83.44035634919976
 30
0.0
 11
116.6749999529314
 21
84.44035615340839
 31
0.0
  0
LINE
  5
1A6
330
66
100
AcDbEntity
  8
0
  6
Continuous
 62
     7
100
AcDbLine
 10
122.2999999529313
 20
83.44035634920044
 30
0.0
 11
123.0499999529314
 21
83.44035634920044
 31
0.0
  0
LINE
  5
1A7
330
66
100
AcDbEntity
  8
0
  6
Continuous
 62
     7
100
AcDbLine
 10
123.0499999529314
 20
83.44035634920044
 30
0.0
 11
123.1749999529314
 21
83.44035634919972
 31
0.0
  0
LINE
  5
1A8
330
66
100
AcDbEntity
  8
0
  6
Continuous
 62
     7
100
AcDbLine
 10
122.1749999529314
 20
83.44035634919972
 30
0.0
 11
122.2999999529313
 21
83.44035634920044
 31
0.0
  0
LINE
  5
1A9
330
66
100
AcDbEntity
  8
0
  6
Continuous
 62
     7
100
AcDbLine
 10
123.1749999529314
 20
83.31598213947923
 30
0.0
 11
123.1749999529314
 21
83.31535637367435
 31
0.0
  0
LINE
  5
1AA
330
66
100
AcDbEntity
  8
0
  6
Continuous
 62
     7
100
AcDbLine
 10
123.1749999529314
 20
83.44035634919972
 30
0.0
 11
123.1749999529314
 21
83.31598213947923
 31
0.0
  0
LINE
  5
1AB
330
66
100
AcDbEntity
  8
0
  6
Continuous
 62
     7
100
AcDbLine
 10
128.2249999529314
 20
84.4403561534083
 30
0.0
 11
128.2249999529314
 21
81.69098245764003
 31
0.0
  0
LINE
  5
1AC
330
66
100
AcDbEntity
  8
0
  6
Continuous
 62
     7
100
AcDbLine
 10
123.1749999529314
 20
81.81535666736137
 30
0.0
 11
123.1749999529314
 21
81.69098245763946
 31
0.0
  0
LINE
  5
1AD
330
66
100
AcDbEntity
  8
0
  6
Continuous
 62
     7
100
AcDbLine
 10
124.6249999529314
 20
81.69098245764003
 30
0.0
 11
124.6249999529314
 21
84.44035615340835
 31
0.0
  0
LINE
  5
1AE
330
66
100
AcDbEntity
  8
0
  6
Continuous
 62
     7
100
AcDbLine
 10
115.6749999529314
 20
81.69098245764002
 30
0.0
 11
115.6749999529314
 21
81.81535666736136
 31
0.0
  0
LINE
  5
1AF
330
66
100
AcDbEntity
  8
0
  6
Continuous
 62
     7
100
AcDbLine
 10
115.6749999529314
 20
83.3159821394792
 30
0.0
 11
115.6749999529314
 21
83.44035634919976
 31
0.0
  0
LINE
  5
1B0
330
66
100
AcDbEntity
  8
0
  6
Continuous
 62
     7
100
AcDbLine
 10
114.2249999529314
 20
84.4403561534084
 30
0.0
 11
114.2249999529314
 21
81.69098245764002
 31
0.0
  0
LINE
  5
1B1
330
66
100
AcDbEntity
  8
0
  6
Continuous
 62
     7
100
AcDbLine
 10
108.1749999529314
 20
81.69098245763946
 30
0.0
 11
108.1749999529314
 21
84.44035615340879
 31
0.0
  0
LINE
  5
1B2
330
66
100
AcDbEntity
  8
0
  6
Continuous
 62
     7
100
AcDbLine
 10
106.7249999529314
 20
84.4403561534088
 30
0.0
 11
106.7249999529314
 21
80.24035697573206
 31
0.0
  0
LINE
  5
1B3
330
66
100
AcDbEntity
  8
0
  6
Continuous
 62
     7
100
AcDbLine
 10
157.2249999529314
 20
81.69035669183516
 30
0.0
 11
157.2249999529314
 21
81.69098245764005
 31
0.0
  0
LINE
  5
1B4
330
66
100
AcDbEntity
  8
0
  6
Continuous
 62
     7
100
AcDbLine
 10
163.2749999529314
 20
81.69035669183516
 30
0.0
 11
163.2749999529314
 21
81.69098245764005
 31
0.0
  0
LINE
  5
1B5
330
66
100
AcDbEntity
  8
0
  6
Continuous
 62
     7
100
AcDbLine
 10
108.1749999529314
 20
81.69098245763946
 30
0.0
 11
114.2249999529314
 21
81.69098245764002
 31
0.0
  0
LINE
  5
1B6
330
66
100
AcDbEntity
  8
0
  6
Continuous
 62
     7
100
AcDbLine
 10
129.4749999529314
 20
81.69098245763948
 30
0.0
 11
141.9749999529314
 21
81.69098245763948
 31
0.0
  0
LINE
  5
1B7
330
66
100
AcDbEntity
  8
0
  6
Continuous
 62
     7
100
AcDbLine
 10
157.2249999529314
 20
81.69098245764005
 30
0.0
 11
163.2749999529314
 21
81.69098245764005
 31
0.0
  0
LINE
  5
1B8
330
66
100
AcDbEntity
  8
0
  6
Continuous
 62
     7
100
AcDbLine
 10
143.2249999529314
 20
81.69098245763948
 30
0.0
 11
146.8249999529314
 21
81.69098245764005
 31
0.0
  0
LINE
  5
1B9
330
66
100
AcDbEntity
  8
0
  6
Continuous
 62
     7
100
AcDbLine
 10
124.6249999529314
 20
81.69098245764003
 30
0.0
 11
128.2249999529314
 21
81.69098245764003
 31
0.0
  0
LINE
  5
1BA
330
66
100
AcDbEntity
  8
0
  6
Continuous
 62
     7
100
AcDbLine
 10
123.0624921887677
 20
81.69098245764002
 30
0.0
 11
123.1749999529314
 21
81.69098245763946
 31
0.0
  0
LINE
  5
1BB
330
66
100
AcDbEntity
  8
0
  6
Continuous
 62
     7
100
AcDbLine
 10
148.2749999529314
 20
81.69098245764005
 30
0.0
 11
155.7749999529314
 21
81.69098245764005
 31
0.0
  0
LINE
  5
1BC
330
66
100
AcDbEntity
  8
0
  6
Continuous
 62
     7
100
AcDbLine
 10
155.7749999529314
 20
81.69098245764005
 30
0.0
 11
155.7749999529314
 21
81.69035669183516
 31
0.0
  0
LINE
  5
1BD
330
66
100
AcDbEntity
  8
0
  6
Continuous
 62
     7
100
AcDbLine
 10
106.7249999529314
 20
84.4403561534088
 30
0.0
 11
108.1749999529314
 21
84.44035615340879
 31
0.0
  0
LINE
  5
1BE
330
66
100
AcDbEntity
  8
0
  6
Continuous
 62
     7
100
AcDbLine
 10
124.6249999529314
 20
84.44035615340835
 30
0.0
 11
122.1749999529314
 21
84.44035615340836
 31
0.0
  0
LINE
  5
1BF
330
66
100
AcDbEntity
  8
0
  6
Continuous
 62
     7
100
AcDbLine
 10
157.2249999529314
 20
84.4403561534083
 30
0.0
 11
154.7749999529314
 21
84.44035615340832
 31
0.0
  0
LINE
  5
1C0
330
66
100
AcDbEntity
  8
0
  6
Continuous
 62
     7
100
AcDbLine
 10
116.6749999529314
 20
84.44035615340839
 30
0.0
 11
114.2249999529314
 21
84.4403561534084
 31
0.0
  0
LINE
  5
1C1
330
66
100
AcDbEntity
  8
0
  6
Continuous
 62
     7
100
AcDbLine
 10
129.4749999529314
 20
84.4403561534083
 30
0.0
 11
128.2249999529314
 21
84.4403561534083
 31
0.0
  0
LINE
  5
1C2
330
66
100
AcDbEntity
  8
0
  6
Continuous
 62
     7
100
AcDbLine
 10
163.2749999529314
 20
84.44035615340815
 30
0.0
 11
164.7249999529314
 21
84.44035615340815
 31
0.0
  0
ENDBLK
  5
68
330
66
100
AcDbEntity
  8
0
100
AcDbBlockEnd
  0
BLOCK
  5
6B
330
69
100
AcDbEntity
  8
0
100
AcDbBlockBegin
  2
SlideAlu_L_LI_Rev04__7
 70
     0
 10
106.7249999529314
 20
80.24035697573206
 30
0.0
  3
SlideAlu_L_LI_Rev04__7
  1

  0
INSERT
  5
6A
330
69
100
AcDbEntity
  8
0
100
AcDbBlockReference
  2
grundkoerper__6
 10
106.7249999529314
 20
80.24035697573206
 30
0.0
  0
ENDBLK
  5
6C
330
69
100
AcDbEntity
  8
0
100
AcDbBlockEnd
  0
BLOCK
  5
6E
330
6D
100
AcDbEntity
  8
0
100
AcDbBlockBegin
  2
SAW22_Rev01_bauteil__ausgeklinkt_1__8
 70
     0
 10
123.0749999529315
 20
99.75904166801169
 30
0.0
  3
SAW22_Rev01_bauteil__ausgeklinkt_1__8
  1

  0
LINE
  5
1C3
330
6D
100
AcDbEntity
  8
0
  6
Continuous
 62
     7
100
AcDbLine
 10
166.9949999529314
 20
108.7590416680116
 30
0.0
 11
167.0749999529314
 21
109.7590416680117
 31
0.0
  0
LINE
  5
1C4
330
6D
100
AcDbEntity
  8
0
  6
Continuous
 62
     7
100
AcDbLine
 10
163.7249999529313
 20
99.75904166801169
 30
0.0
 11
163.5249999529313
 21
99.9590416680117
 31
0.0
  0
LINE
  5
1C5
330
6D
100
AcDbEntity
  8
0
  6
Continuous
 62
     7
100
AcDbLine
 10
164.7249999529314
 20
109.7590416680644
 30
0.0
 11
164.7249999529313
 21
99.75904166801169
 31
0.0
  0
LINE
  5
1C6
330
6D
100
AcDbEntity
  8
0
  6
Continuous
 62
     7
100
AcDbLine
 10
164.7249999529313
 20
99.75904166801169
 30
0.0
 11
163.7249999529313
 21
99.75904166801169
 31
0.0
  0
LINE
  5
1C7
330
6D
100
AcDbEntity
  8
0
  6
Continuous
 62
     7
100
AcDbLine
 10
163.5249999529313
 20
99.9590416680117
 30
0.0
 11
163.5249999529313
 21
109.7590416680117
 31
0.0
  0
LINE
  5
1C8
330
6D
100
AcDbEntity
  8
0
  6
Continuous
 62
     7
100
AcDbLine
 10
164.7249999529314
 20
109.7590416680644
 30
0.0
 11
166.7249999529314
 21
109.7590416680644
 31
0.0
  0
LINE
  5
1C9
330
6D
100
AcDbEntity
  8
0
  6
Continuous
 62
     7
100
AcDbLine
 10
166.9949999529314
 20
108.7590416680116
 30
0.0
 11
168.0749999529315
 21
108.7590416680116
 31
0.0
  0
LINE
  5
1CA
330
6D
100
AcDbEntity
  8
0
  6
Continuous
 62
     7
100
AcDbLine
 10
167.0749999529314
 20
109.7590416680117
 30
0.0
 11
166.7249999529314
 21
109.7590416680644
 31
0.0
  0
LINE
  5
1CB
330
6D
100
AcDbEntity
  8
0
  6
Continuous
 62
     7
100
AcDbLine
 10
168.0749999529315
 20
110.7590416680117
 30
0.0
 11
168.0749999529315
 21
108.7590416680116
 31
0.0
  0
LINE
  5
1CC
330
6D
100
AcDbEntity
  8
0
  6
Continuous
 62
     7
100
AcDbLine
 10
168.0749999529315
 20
110.7590416680117
 30
0.0
 11
167.8749999529315
 21
110.9590416680117
 31
0.0
  0
LINE
  5
1CD
330
6D
100
AcDbEntity
  8
0
  6
Continuous
 62
     7
100
AcDbLine
 10
123.0749999529315
 20
110.9590416680117
 30
0.0
 11
167.8749999529315
 21
110.9590416680117
 31
0.0
  0
LINE
  5
1CE
330
6D
100
AcDbEntity
  8
0
  6
Continuous
 62
     7
100
AcDbLine
 10
123.0749999529315
 20
109.7590416680117
 30
0.0
 11
123.0749999529315
 21
110.9590416680117
 31
0.0
  0
LINE
  5
1CF
330
6D
100
AcDbEntity
  8
0
  6
Continuous
 62
     7
100
AcDbLine
 10
163.5249999529313
 20
109.7590416680117
 30
0.0
 11
123.0749999529315
 21
109.7590416680117
 31
0.0
  0
ENDBLK
  5
6F
330
6D
100
AcDbEntity
  8
0
100
AcDbBlockEnd
  0
BLOCK
  5
71
330
70
100
AcDbEntity
  8
0
100
AcDbBlockBegin
  2
Dichtung01_1_1_1_1
 70
     0
 10
115.6749999529313
 20
81.69035666736141
 30
0.0
  3
Dichtung01_1_1_1_1
  1

  0
LINE
  5
1D0
330
70
100
AcDbEntity
  8
0
  6
Continuous
 62
     7
100
AcDbLine
 10
118.3531990509971
 20
85.44035576182588
 30
0.0
 11
116.7334888421516
 21
83.51006067940799
 31
0.0
  0
LINE
  5
1D1
330
70
100
AcDbEntity
  8
0
  6
Continuous
 62
     7
100
AcDbLine
 10
118.3531990509971
 20
85.44035576182588
 30
0.0
 11
119.878286936057
 21
85.44035576182588
 31
0.0
  0
LINE
  5
1D2
330
70
100
AcDbEntity
  8
0
  6
Continuous
 62
     7
100
AcDbLine
 10
123.1749999529314
 20
83.31535637367435
 30
0.0
 11
123.1749999529314
 21
81.81535666736137
 31
0.0
  0
LINE
  5
1D3
330
70
100
AcDbEntity
  8
0
  6
Continuous
 62
     7
100
AcDbLine
 10
123.0499999529314
 20
81.69035669183529
 30
0.0
 11
115.7999999529314
 21
81.69035669183528
 31
0.0
  0
LINE
  5
1D4
330
70
100
AcDbEntity
  8
0
  6
Continuous
 62
     7
100
AcDbLine
 10
115.6749999529314
 20
81.81535666736136
 30
0.0
 11
115.6749999529314
 21
83.31535637367432
 31
0.0
  0
LINE
  5
1D5
330
70
100
AcDbEntity
  8
0
  6
Continuous
 62
     7
100
AcDbLine
 10
116.2999999529314
 20
83.19035639814824
 30
0.0
 11
116.6749999529314
 21
83.19035639814824
 31
0.0
  0
LINE
  5
1D6
330
70
100
AcDbEntity
  8
0
  6
Continuous
 62
     7
100
AcDbLine
 10
115.7999999529314
 20
83.4403563492004
 30
0.0
 11
116.0499999529314
 21
83.4403563492004
 31
0.0
  0
LINE
  5
1D7
330
70
100
AcDbEntity
  8
0
  6
Continuous
 62
     7
100
AcDbLine
 10
115.6749999529314
 20
83.31535637367432
 30
0.0
 11
115.6749999529314
 21
83.3159821394792
 31
0.0
  0
LINE
  5
1D8
330
70
100
AcDbEntity
  8
0
  6
Continuous
 62
     7
100
AcDbLine
 10
116.2999999529314
 20
83.19098216395311
 30
0.0
 11
116.6749999529314
 21
83.19098216395311
 31
0.0
  0
LINE
  5
1D9
330
70
100
AcDbEntity
  8
0
  6
Continuous
 62
     7
100
AcDbLine
 10
116.2999999529314
 20
83.19035639814824
 30
0.0
 11
116.2999999529314
 21
83.19098216395311
 31
0.0
  0
LINE
  5
1DA
330
70
100
AcDbEntity
  8
0
  6
Continuous
 62
     7
100
AcDbLine
 10
116.6749999529314
 20
83.34936380844941
 30
0.0
 11
116.6749999529314
 21
83.3499895742543
 31
0.0
  0
LINE
  5
1DB
330
70
100
AcDbEntity
  8
0
  6
Continuous
 62
     7
100
AcDbLine
 10
116.6749999529314
 20
83.19035639814824
 30
0.0
 11
116.6749999529314
 21
83.19098216395311
 31
0.0
  0
LINE
  5
1DC
330
70
100
AcDbEntity
  8
0
  6
Continuous
 62
     7
100
AcDbLine
 10
122.1749999529313
 20
83.31598213947923
 30
0.0
 11
122.1749999529313
 21
83.31535637367436
 31
0.0
  0
LINE
  5
1DD
330
70
100
AcDbEntity
  8
0
  6
Continuous
 62
     2
100
AcDbLine
 10
119.0430636363837
 20
82.94098221290096
 30
0.0
 11
119.0430636363837
 21
82.9403564470961
 31
0.0
  0
LINE
  5
1DE
330
70
100
AcDbEntity
  8
0
  6
Continuous
 62
     7
100
AcDbLine
 10
119.0430636363837
 20
82.94098221290096
 30
0.0
 11
121.9249999529313
 21
82.94098221290096
 31
0.0
  0
LINE
  5
1DF
330
70
100
AcDbEntity
  8
0
  6
Continuous
 62
     7
100
AcDbLine
 10
119.0430636363837
 20
82.9403564470961
 30
0.0
 11
121.9249999529313
 21
82.94035644709608
 31
0.0
  0
LINE
  5
1E0
330
70
100
AcDbEntity
  8
0
  6
Continuous
 62
     2
100
AcDbLine
 10
121.9249999529313
 20
82.94035644709608
 30
0.0
 11
121.9249999529313
 21
82.94098221290096
 31
0.0
  0
LINE
  5
1E1
330
70
100
AcDbEntity
  8
0
  6
Continuous
 62
     7
100
AcDbLine
 10
122.1749999529313
 20
83.19035639814823
 30
0.0
 11
122.1749999529313
 21
83.19098216395311
 31
0.0
  0
LINE
  5
1E2
330
70
100
AcDbEntity
  8
0
  6
Continuous
 62
     7
100
AcDbLine
 10
122.1749999529313
 20
83.19098216395311
 30
0.0
 11
122.1749999529313
 21
83.31535637367436
 31
0.0
  0
LINE
  5
1E3
330
70
100
AcDbEntity
  8
0
  6
Continuous
 62
     7
100
AcDbLine
 10
116.6749999529314
 20
83.19098216395311
 30
0.0
 11
116.6749999529314
 21
83.34936380844941
 31
0.0
  0
LINE
  5
1E4
330
70
100
AcDbEntity
  8
0
  6
Continuous
 62
     2
100
AcDbLine
 10
116.7334888421516
 20
83.51068644521285
 30
0.0
 11
116.7334888421516
 21
83.51006067940799
 31
0.0
  0
LINE
  5
1E5
330
70
100
AcDbEntity
  8
0
  6
Continuous
 62
     7
100
AcDbLine
 10
122.2999999529313
 20
83.44035634920044
 30
0.0
 11
123.0499999529314
 21
83.44035634920044
 31
0.0
  0
LINE
  5
1E6
330
70
100
AcDbEntity
  8
0
  6
Continuous
 62
     7
100
AcDbLine
 10
123.1749999529314
 20
83.31598213947923
 30
0.0
 11
123.1749999529314
 21
83.31535637367435
 31
0.0
  0
LINE
  5
1E7
330
70
100
AcDbEntity
  8
0
  6
Continuous
 62
     7
100
AcDbLine
 10
118.3526742996149
 20
85.44035615340832
 30
0.0
 11
116.7334888421516
 21
83.51068644521285
 31
0.0
  0
LINE
  5
1E8
330
70
100
AcDbEntity
  8
0
  6
Continuous
 62
     7
100
AcDbLine
 10
118.6385745736976
 20
83.73427566523628
 30
0.0
 11
119.878286936057
 21
85.44035576182588
 31
0.0
  0
ARC
  5
1E9
330
70
100
AcDbEntity
  8
0
  6
Continuous
 62
     7
100
AcDbCircle
 10
119.0430635874052
 20
83.44098216395312
 30
0.0
 40
0.4999999510521622
100
AcDbArc
 50
180.0358593544418
 51
270.000005612524
  0
ARC
  5
1EA
330
70
100
AcDbEntity
  8
0
  6
Continuous
 62
     7
100
AcDbCircle
 10
119.0430635874358
 20
83.44035639814825
 30
0.0
 40
0.4999999510520918
100
AcDbArc
 50
180.0000056090098
 51
270.0000056090179
  0
ARC
  5
1EB
330
70
100
AcDbEntity
  8
0
  6
Continuous
 62
     7
100
AcDbCircle
 10
116.0500003700306
 20
83.1903559820924
 30
0.0
 40
0.2500003671083224
100
AcDbArc
 50
0.1435102506259
 51
90.00009559195516
  0
ARC
  5
1EC
330
70
100
AcDbEntity
  8
0
  6
Continuous
 62
     7
100
AcDbCircle
 10
121.9249999774052
 20
83.19035642262217
 30
0.0
 40
0.2499999755260956
100
AcDbArc
 50
269.9999943909967
 51
359.9999943909837
  0
ARC
  5
1ED
330
70
100
AcDbEntity
  8
0
  6
Continuous
 62
     7
100
AcDbCircle
 10
121.9249999774052
 20
83.19098218842706
 30
0.0
 40
0.2499999755260956
100
AcDbArc
 50
269.9999943909967
 51
359.9999943909837
  0
ARC
  5
1EE
330
70
100
AcDbEntity
  8
0
  6
Continuous
 62
     7
100
AcDbCircle
 10
116.0499999529313
 20
83.19098216395312
 30
0.0
 40
0.2500000000000995
100
AcDbArc
 50
359.9999999999968
 51
85.94509053444538
  0
ARC
  5
1EF
330
70
100
AcDbEntity
  8
0
  6
Continuous
 62
     7
100
AcDbCircle
 10
115.7999999529313
 20
83.31598213947919
 30
0.0
 40
0.1250000000000056
100
AcDbArc
 50
95.73559373285875
 51
179.9999999999935
  0
ARC
  5
1F0
330
70
100
AcDbEntity
  8
0
  6
Continuous
 62
     7
100
AcDbCircle
 10
116.0499997571403
 20
83.19066928105067
 30
0.0
 40
0.2500003915822937
100
AcDbArc
 50
359.9282926144325
 51
0.07170738556747
  0
ARC
  5
1F1
330
70
100
AcDbEntity
  8
0
  6
Continuous
 62
     7
100
AcDbCircle
 10
115.7999999406944
 20
83.31535636143741
 30
0.0
 40
0.124999987762991
100
AcDbArc
 50
89.99999439097392
 51
179.999994391013
  0
ARC
  5
1F2
330
70
100
AcDbEntity
  8
0
  6
Continuous
 62
     7
100
AcDbCircle
 10
116.9249999428193
 20
83.34998954647179
 30
0.0
 40
0.2499999898878974
100
AcDbArc
 50
139.99999915651
 51
179.9999936327186
  0
ARC
  5
1F3
330
70
100
AcDbEntity
  8
0
  6
Continuous
 62
     7
100
AcDbCircle
 10
116.9249999428193
 20
83.34936378066692
 30
0.0
 40
0.2499999898878974
100
AcDbArc
 50
139.99999915651
 51
179.9999936327218
  0
ARC
  5
1F4
330
70
100
AcDbEntity
  8
0
  6
Continuous
 62
     7
100
AcDbCircle
 10
119.0430636194695
 20
83.44035629714982
 30
0.0
 40
0.4999999830858164
100
AcDbArc
 50
143.9962106931497
 51
179.999994035441
  0
ARC
  5
1F5
330
70
100
AcDbEntity
  8
0
  6
Continuous
 62
     7
100
AcDbCircle
 10
122.2999999406944
 20
83.31535636143738
 30
0.0
 40
0.124999987763062
100
AcDbArc
 50
89.99999439101953
 51
179.9999943909804
  0
ARC
  5
1F6
330
70
100
AcDbEntity
  8
0
  6
Continuous
 62
     7
100
AcDbCircle
 10
123.0499999529313
 20
83.31598213947923
 30
0.0
 40
0.1250000000000995
100
AcDbArc
 50
0.0
 51
84.26440626677442
  0
ARC
  5
1F7
330
70
100
AcDbEntity
  8
0
  6
Continuous
 62
     7
100
AcDbCircle
 10
123.0499999651683
 20
83.31535636143737
 30
0.0
 40
0.1249999877631047
100
AcDbArc
 50
0.00000560901957
 51
90.00000560898047
  0
ARC
  5
1F8
330
70
100
AcDbEntity
  8
0
  6
Continuous
 62
     7
100
AcDbCircle
 10
122.2999999529313
 20
83.31598213947923
 30
0.0
 40
0.1250000000000002
100
AcDbArc
 50
95.73559373322558
 51
180.0
  0
ARC
  5
1F9
330
70
100
AcDbEntity
  8
0
  6
Continuous
 62
     7
100
AcDbCircle
 10
115.7999999406944
 20
81.81535667959827
 30
0.0
 40
0.1249999877630052
100
AcDbArc
 50
180.000005608987
 51
270.0000056090261
  0
ARC
  5
1FA
330
70
100
AcDbEntity
  8
0
  6
Continuous
 62
     7
100
AcDbCircle
 10
123.0499999651683
 20
81.81535667959835
 30
0.0
 40
0.124999987763062
100
AcDbArc
 50
269.9999943910195
 51
359.9999943909804
  0
ENDBLK
  5
72
330
70
100
AcDbEntity
  8
0
100
AcDbBlockEnd
  0
BLOCK
  5
78
330
73
100
AcDbEntity
  8
0
100
AcDbBlockBegin
  2
SlideAlu_L_45mm
 70
     0
 10
44.72499995293151
 20
80.24035697573206
 30
0.0
  3
SlideAlu_L_45mm
  1

  0
INSERT
  5
74
330
73
100
AcDbEntity
  8
0
100
AcDbBlockReference
  2
fenorm_aluminium_C0__5
 10
44.72499995293151
 20
85.44035576182588
 30
0.0
  0
INSERT
  5
75
330
73
100
AcDbEntity
  8
0
100
AcDbBlockReference
  2
SlideAlu_L_LI_Rev04__7
 10
106.7249999529314
 20
80.24035697573206
 30
0.0
  0
INSERT
  5
76
330
73
100
AcDbEntity
  8
0
100
AcDbBlockReference
  2
SAW22_Rev01_bauteil__ausgeklinkt_1__8
 10
123.0749999529315
 20
99.75904166801169
 30
0.0
  0
INSERT
  5
77
330
73
100
AcDbEntity
  8
0
100
AcDbBlockReference
  2
Dichtung01_1_1_1_1
 10
115.6749999529313
 20
81.69035666736141
 30
0.0
  0
ENDBLK
  5
79
330
73
100
AcDbEntity
  8
0
100
AcDbBlockEnd
  0
BLOCK
  5
7C
330
7A
100
AcDbEntity
  8
0
100
AcDbBlockBegin
  2
Std_SlideAlu_U45
 70
     0
 10
456.4000000003101
 20
95.60000191720009
 30
0.0
  3
Std_SlideAlu_U45
  1

  0
INSERT
  5
7B
330
7A
100
AcDbEntity
  8
0
100
AcDbBlockReference
  2
SlideAlu_L_45mm
 10
44.72499995293151
 20
80.24035697573206
 30
0.0
  0
MTEXT
  5
1FB
330
7A
100
AcDbEntity
  8
1
 62
     7
100
AcDbMText
 10
78.10000000031005
 20
98.4403550572843
 30
0.0
 40
3.5
 41
0.0
 71
     2
 72
     1
  1
SlideAlu U45
  7
CONVERTER_11
 73
     1
 44
1.32052821128451
  0
DIMENSION
  5
207
330
7A
100
AcDbEntity
  8
1
100
AcDbDimension
  2
*D34
 10
106.7249999529314
 20
77.1892174118959
 30
0.0
 11
100.1249999529314
 21
79.4392174118959
 31
0.0
 70
    33
  1
<>
 71
     5
 42
-1.0
 53
0.00013888888889
  3
ME10_DIM_14
100
AcDbAlignedDimension
 13
166.7249999529314
 23
80.24035697573208
 33
0.0
 14
106.7249999529314
 24
80.24035697573206
 34
0.0
  0
DIMENSION
  5
212
330
7A
100
AcDbEntity
  8
1
100
AcDbDimension
  2
*D35
 10
164.7249999529313
 20
102.3789843136489
 30
0.0
 11
143.8999999529314
 21
104.6289843136489
 31
0.0
 70
    32
  1
41.5
 71
     5
 42
-1.0
 53
0.00013888888889
  3
ME10_DIM_15
100
AcDbAlignedDimension
 13
123.0749999529315
 23
109.7590416680117
 33
0.0
 14
164.7249999529314
 24
109.7590416680644
 34
0.0
100
AcDbRotatedDimension
  0
DIMENSION
  5
21D
330
7A
100
AcDbEntity
  8
1
100
AcDbDimension
  2
*D36
 10
123.0749999529314
 20
114.7795296237359
 30
0.0
 11
145.5749999529315
 21
117.0295296237359
 31
0.0
 70
    32
  1
<>
 71
     5
 42
-1.0
 53
0.00013888888889
  3
ME10_DIM_16
100
AcDbAlignedDimension
 13
168.0749999529315
 23
110.7590416680117
 33
0.0
 14
123.0749999529315
 24
110.9590416680117
 34
0.0
100
AcDbRotatedDimension
  0
DIMENSION
  5
228
330
7A
100
AcDbEntity
  8
1
100
AcDbDimension
  2
*D37
 10
178.6835344631681
 20
110.9590416680117
 30
0.0
 11
176.4335344631681
 21
95.5996993218719
 31
0.0
 70
    32
  1
31
 71
     5
 42
-1.0
 53
90.0
  3
ME10_DIM_17
100
AcDbAlignedDimension
 13
166.7249999529314
 23
80.24035697573208
 33
0.0
 14
167.8749999529315
 24
110.9590416680117
 34
0.0
 50
90.0
100
AcDbRotatedDimension
  0
ENDBLK
  5
7D
330
7A
100
AcDbEntity
  8
0
100
AcDbBlockEnd
  0
BLOCK
  5
7F
330
7E
100
AcDbEntity
  8
0
100
AcDbBlockBegin
  2
fenorm_aluminium_C0__9
 70
     0
 10
46.02499995293168
 20
250.0403557617659
 30
0.0
  3
fenorm_aluminium_C0__9
  1

  0
LINE
  5
229
330
7E
100
AcDbEntity
  8
0
  6
Continuous
 62
     7
100
AcDbLine
 10
161.0249999529317
 20
251.5323101568415
 30
0.0
 11
161.0249999529318
 21
250.0403561533483
 31
0.0
  0
LINE
  5
22A
330
7E
100
AcDbEntity
  8
0
  6
Continuous
 62
     7
100
AcDbLine
 10
46.02499995293179
 20
250.0403561533491
 30
0.0
 11
46.02499995293168
 21
251.5323101568421
 31
0.0
  0
LINE
  5
22B
330
7E
100
AcDbEntity
  8
0
  6
Continuous
 62
     7
100
AcDbLine
 10
46.02499995293179
 20
250.0403561533491
 30
0.0
 11
119.6531990509971
 21
250.0403557617659
 31
0.0
  0
LINE
  5
22C
330
7E
100
AcDbEntity
  8
0
  6
Continuous
 62
     7
100
AcDbLine
 10
161.0249999529317
 20
251.5323101568415
 30
0.0
 11
46.02499995293168
 21
251.5323101568421
 31
0.0
  0
LINE
  5
22D
330
7E
100
AcDbEntity
  8
0
  6
Continuous
 62
     7
100
AcDbLine
 10
121.1782869360571
 20
250.0403557617659
 30
0.0
 11
161.0249999529318
 21
250.0403561533483
 31
0.0
  0
LINE
  5
22E
330
7E
100
AcDbEntity
  8
0
  6
Continuous
 62
     7
100
AcDbLine
 10
119.6531990509971
 20
250.0403557617659
 30
0.0
 11
121.1782869360571
 21
250.0403557617659
 31
0.0
  0
ENDBLK
  5
80
330
7E
100
AcDbEntity
  8
0
100
AcDbBlockEnd
  0
BLOCK
  5
82
330
81
100
AcDbEntity
  8
0
100
AcDbBlockBegin
  2
SAW22_Rev01_bauteil__ausgeklinkt_1__10
 70
     0
 10
147.3749999529315
 20
264.3590416679518
 30
0.0
  3
SAW22_Rev01_bauteil__ausgeklinkt_1__10
  1

  0
LINE
  5
22F
330
81
100
AcDbEntity
  8
0
  6
Continuous
 62
     7
100
AcDbLine
 10
168.2949999529314
 20
273.3590416679518
 30
0.0
 11
168.3749999529314
 21
274.3590416679518
 31
0.0
  0
LINE
  5
230
330
81
100
AcDbEntity
  8
0
  6
Continuous
 62
     7
100
AcDbLine
 10
169.3749999529315
 20
275.3590416679518
 30
0.0
 11
169.1749999529315
 21
275.5590416679519
 31
0.0
  0
LINE
  5
231
330
81
100
AcDbEntity
  8
0
  6
Continuous
 62
     7
100
AcDbLine
 10
165.0249999529313
 20
264.3590416679518
 30
0.0
 11
164.8249999529313
 21
264.5590416679519
 31
0.0
  0
LINE
  5
232
330
81
100
AcDbEntity
  8
0
  6
Continuous
 62
     7
100
AcDbLine
 10
166.0249999529314
 20
274.3590416680046
 30
0.0
 11
166.0249999529313
 21
264.3590416679518
 31
0.0
  0
LINE
  5
233
330
81
100
AcDbEntity
  8
0
  6
Continuous
 62
     7
100
AcDbLine
 10
166.0249999529313
 20
264.3590416679518
 30
0.0
 11
165.0249999529313
 21
264.3590416679518
 31
0.0
  0
LINE
  5
234
330
81
100
AcDbEntity
  8
0
  6
Continuous
 62
     7
100
AcDbLine
 10
164.8249999529313
 20
264.5590416679519
 30
0.0
 11
164.8249999529313
 21
274.3590416679518
 31
0.0
  0
LINE
  5
235
330
81
100
AcDbEntity
  8
0
  6
Continuous
 62
     7
100
AcDbLine
 10
166.0249999529314
 20
274.3590416680046
 30
0.0
 11
168.0249999529314
 21
274.3590416680046
 31
0.0
  0
LINE
  5
236
330
81
100
AcDbEntity
  8
0
  6
Continuous
 62
     7
100
AcDbLine
 10
168.2949999529314
 20
273.3590416679518
 30
0.0
 11
169.3749999529315
 21
273.3590416679518
 31
0.0
  0
LINE
  5
237
330
81
100
AcDbEntity
  8
0
  6
Continuous
 62
     7
100
AcDbLine
 10
168.3749999529314
 20
274.3590416679518
 30
0.0
 11
168.0249999529314
 21
274.3590416680046
 31
0.0
  0
LINE
  5
238
330
81
100
AcDbEntity
  8
0
  6
Continuous
 62
     7
100
AcDbLine
 10
169.3749999529315
 20
275.3590416679518
 30
0.0
 11
169.3749999529315
 21
273.3590416679518
 31
0.0
  0
LINE
  5
239
330
81
100
AcDbEntity
  8
0
  6
Continuous
 62
     7
100
AcDbLine
 10
147.3749999529315
 20
274.3590416679518
 30
0.0
 11
147.3749999529315
 21
275.5590416679518
 31
0.0
  0
LINE
  5
23A
330
81
100
AcDbEntity
  8
0
  6
Continuous
 62
     7
100
AcDbLine
 10
164.8249999529313
 20
274.3590416679518
 30
0.0
 11
147.3749999529315
 21
274.3590416679518
 31
0.0
  0
LINE
  5
23B
330
81
100
AcDbEntity
  8
0
  6
Continuous
 62
     7
100
AcDbLine
 10
147.3749999529315
 20
275.5590416679518
 30
0.0
 11
169.1749999529315
 21
275.5590416679519
 31
0.0
  0
ENDBLK
  5
83
330
81
100
AcDbEntity
  8
0
100
AcDbBlockEnd
  0
BLOCK
  5
85
330
84
100
AcDbEntity
  8
0
100
AcDbBlockBegin
  2
grundkoerper__11
 70
     0
 10
108.0249999529314
 20
244.8403569756722
 30
0.0
  3
grundkoerper__11
  1

  0
LINE
  5
23C
330
84
100
AcDbEntity
  8
0
  6
Continuous
 62
     7
100
AcDbLine
 10
108.0249999529314
 20
244.8403569756722
 30
0.0
 11
168.0249999529314
 21
244.8403569756722
 31
0.0
  0
LINE
  5
23D
330
84
100
AcDbEntity
  8
0
  6
Continuous
 62
     7
100
AcDbLine
 10
166.0249999529314
 20
274.3590416680046
 30
0.0
 11
166.0249999529313
 21
264.3590416679518
 31
0.0
  0
LINE
  5
23E
330
84
100
AcDbEntity
  8
0
  6
Continuous
 62
     7
100
AcDbLine
 10
166.0249999529313
 20
264.3590416679518
 30
0.0
 11
166.0249999529314
 21
249.0409819191532
 31
0.0
  0
LINE
  5
23F
330
84
100
AcDbEntity
  8
0
  6
Continuous
 62
     7
100
AcDbLine
 10
168.0249999529314
 20
274.3590416680046
 30
0.0
 11
168.0249999529314
 21
244.8403569756722
 31
0.0
  0
LINE
  5
240
330
84
100
AcDbEntity
  8
0
  6
Continuous
 62
     7
100
AcDbLine
 10
164.5749999529314
 20
246.2909824575802
 30
0.0
 11
164.5749999529314
 21
249.0403561533483
 31
0.0
  0
LINE
  5
241
330
84
100
AcDbEntity
  8
0
  6
Continuous
 62
     7
100
AcDbLine
 10
164.5749999529314
 20
246.2903566917753
 30
0.0
 11
164.5749999529314
 21
246.2909824575802
 31
0.0
  0
LINE
  5
242
330
84
100
AcDbEntity
  8
0
  6
Continuous
 62
     7
100
AcDbLine
 10
166.0249999529314
 20
274.3590416680046
 30
0.0
 11
168.0249999529314
 21
274.3590416680046
 31
0.0
  0
LINE
  5
243
330
84
100
AcDbEntity
  8
0
  6
Continuous
 62
     7
100
AcDbLine
 10
130.7749999529314
 20
246.2909824575796
 30
0.0
 11
143.2749999529314
 21
246.2909824575796
 31
0.0
  0
LINE
  5
244
330
84
100
AcDbEntity
  8
0
  6
Continuous
 62
     7
100
AcDbLine
 10
125.9249999529314
 20
246.2909824575802
 30
0.0
 11
129.5249999529314
 21
246.2909824575802
 31
0.0
  0
LINE
  5
245
330
84
100
AcDbEntity
  8
0
  6
Continuous
 62
     7
100
AcDbLine
 10
116.9749999529314
 20
246.2909824575802
 30
0.0
 11
117.0875077170933
 21
246.2909824575802
 31
0.0
  0
LINE
  5
246
330
84
100
AcDbEntity
  8
0
  6
Continuous
 62
     7
100
AcDbLine
 10
124.3624921887694
 20
246.2909824575802
 30
0.0
 11
124.4749999529314
 21
246.2909824575796
 31
0.0
  0
LINE
  5
247
330
84
100
AcDbEntity
  8
0
  6
Continuous
 62
     7
100
AcDbLine
 10
129.5249999529314
 20
249.0403561533485
 30
0.0
 11
129.5249999529314
 21
246.2909824575802
 31
0.0
  0
LINE
  5
248
330
84
100
AcDbEntity
  8
0
  6
Continuous
 62
     7
100
AcDbLine
 10
123.5999999529314
 20
248.0403563491404
 30
0.0
 11
124.3499999529314
 21
248.0403563491404
 31
0.0
  0
LINE
  5
249
330
84
100
AcDbEntity
  8
0
  6
Continuous
 62
     7
100
AcDbLine
 10
123.4749999529314
 20
248.0403563491399
 30
0.0
 11
123.5999999529314
 21
248.0403563491404
 31
0.0
  0
LINE
  5
24A
330
84
100
AcDbEntity
  8
0
  6
Continuous
 62
     7
100
AcDbLine
 10
116.9749999529314
 20
246.2909824575802
 30
0.0
 11
116.9749999529314
 21
246.4153566673014
 31
0.0
  0
LINE
  5
24B
330
84
100
AcDbEntity
  8
0
  6
Continuous
 62
     7
100
AcDbLine
 10
130.7749999529314
 20
246.2909824575796
 30
0.0
 11
130.7749999529314
 21
249.0403561533485
 31
0.0
  0
LINE
  5
24C
330
84
100
AcDbEntity
  8
0
  6
Continuous
 62
     7
100
AcDbLine
 10
124.3499999529314
 20
248.0403563491404
 30
0.0
 11
124.4749999529314
 21
248.0403563491399
 31
0.0
  0
LINE
  5
24D
330
84
100
AcDbEntity
  8
0
  6
Continuous
 62
     7
100
AcDbLine
 10
124.4749999529314
 20
247.9153563736143
 30
0.0
 11
124.4749999529314
 21
246.4153566673014
 31
0.0
  0
LINE
  5
24E
330
84
100
AcDbEntity
  8
0
  6
Continuous
 62
     7
100
AcDbLine
 10
124.4749999529314
 20
248.0403563491399
 30
0.0
 11
124.4749999529314
 21
247.9159821394192
 31
0.0
  0
LINE
  5
24F
330
84
100
AcDbEntity
  8
0
  6
Continuous
 62
     7
100
AcDbLine
 10
124.4749999529314
 20
247.9159821394192
 30
0.0
 11
124.4749999529314
 21
247.9153563736143
 31
0.0
  0
LINE
  5
250
330
84
100
AcDbEntity
  8
0
  6
Continuous
 62
     7
100
AcDbLine
 10
124.4749999529314
 20
246.4153566673014
 30
0.0
 11
124.4749999529314
 21
246.2909824575796
 31
0.0
  0
LINE
  5
251
330
84
100
AcDbEntity
  8
0
  6
Continuous
 62
     7
100
AcDbLine
 10
117.3499999529314
 20
248.0403563491404
 30
0.0
 11
117.9749999529314
 21
248.0403563491399
 31
0.0
  0
LINE
  5
252
330
84
100
AcDbEntity
  8
0
  6
Continuous
 62
     7
100
AcDbLine
 10
116.9749999529314
 20
248.0403563491399
 30
0.0
 11
117.0999999529314
 21
248.0403563491404
 31
0.0
  0
LINE
  5
253
330
84
100
AcDbEntity
  8
0
  6
Continuous
 62
     7
100
AcDbLine
 10
117.0999999529314
 20
248.0403563491404
 30
0.0
 11
117.3499999529314
 21
248.0403563491404
 31
0.0
  0
LINE
  5
254
330
84
100
AcDbEntity
  8
0
  6
Continuous
 62
     7
100
AcDbLine
 10
125.9249999529314
 20
246.2909824575802
 30
0.0
 11
125.9249999529314
 21
249.0403561533485
 31
0.0
  0
LINE
  5
255
330
84
100
AcDbEntity
  8
0
  6
Continuous
 62
     7
100
AcDbLine
 10
143.2749999529314
 20
249.0403561533485
 30
0.0
 11
143.2749999529314
 21
246.2909824575796
 31
0.0
  0
LINE
  5
256
330
84
100
AcDbEntity
  8
0
  6
Continuous
 62
     7
100
AcDbLine
 10
148.1249999529314
 20
249.0403561533485
 30
0.0
 11
148.1249999529314
 21
246.2909824575802
 31
0.0
  0
LINE
  5
257
330
84
100
AcDbEntity
  8
0
  6
Continuous
 62
     7
100
AcDbLine
 10
150.5749999529314
 20
248.0403563491399
 30
0.0
 11
150.5749999529314
 21
249.0403561533485
 31
0.0
  0
LINE
  5
258
330
84
100
AcDbEntity
  8
0
  6
Continuous
 62
     7
100
AcDbLine
 10
149.5749999529314
 20
246.2909824575802
 30
0.0
 11
149.5749999529314
 21
248.0403563491399
 31
0.0
  0
LINE
  5
259
330
84
100
AcDbEntity
  8
0
  6
Continuous
 62
     7
100
AcDbLine
 10
158.5249999529314
 20
246.2909824575802
 30
0.0
 11
158.5249999529314
 21
249.0403561533485
 31
0.0
  0
LINE
  5
25A
330
84
100
AcDbEntity
  8
0
  6
Continuous
 62
     7
100
AcDbLine
 10
149.5749999529314
 20
246.2909824575802
 30
0.0
 11
157.0749999529314
 21
246.2909824575802
 31
0.0
  0
LINE
  5
25B
330
84
100
AcDbEntity
  8
0
  6
Continuous
 62
     7
100
AcDbLine
 10
158.5249999529314
 20
246.2909824575802
 30
0.0
 11
164.5749999529314
 21
246.2909824575802
 31
0.0
  0
LINE
  5
25C
330
84
100
AcDbEntity
  8
0
  6
Continuous
 62
     7
100
AcDbLine
 10
144.5249999529314
 20
246.2909824575796
 30
0.0
 11
148.1249999529314
 21
246.2909824575802
 31
0.0
  0
LINE
  5
25D
330
84
100
AcDbEntity
  8
0
  6
Continuous
 62
     7
100
AcDbLine
 10
156.0749999529314
 20
248.0403563491398
 30
0.0
 11
157.0749999529314
 21
248.0403563491398
 31
0.0
  0
LINE
  5
25E
330
84
100
AcDbEntity
  8
0
  6
Continuous
 62
     7
100
AcDbLine
 10
157.0749999529314
 20
248.0403563491398
 30
0.0
 11
157.0749999529314
 21
246.2909824575802
 31
0.0
  0
LINE
  5
25F
330
84
100
AcDbEntity
  8
0
  6
Continuous
 62
     7
100
AcDbLine
 10
149.5749999529314
 20
248.0403563491399
 30
0.0
 11
150.5749999529314
 21
248.0403563491399
 31
0.0
  0
LINE
  5
260
330
84
100
AcDbEntity
  8
0
  6
Continuous
 62
     7
100
AcDbLine
 10
156.0749999529314
 20
249.0403561533485
 30
0.0
 11
156.0749999529314
 21
248.0403563491398
 31
0.0
  0
LINE
  5
261
330
84
100
AcDbEntity
  8
0
  6
Continuous
 62
     7
100
AcDbLine
 10
144.5249999529314
 20
246.2909824575796
 30
0.0
 11
144.5249999529314
 21
249.0403561533485
 31
0.0
  0
LINE
  5
262
330
84
100
AcDbEntity
  8
0
  6
Continuous
 62
     7
100
AcDbLine
 10
117.9749999529314
 20
248.0403563491399
 30
0.0
 11
117.9749999529314
 21
249.0403561533485
 31
0.0
  0
LINE
  5
263
330
84
100
AcDbEntity
  8
0
  6
Continuous
 62
     7
100
AcDbLine
 10
108.0249999529314
 20
249.040356153349
 30
0.0
 11
109.4749999529314
 21
249.0403561533489
 31
0.0
  0
LINE
  5
264
330
84
100
AcDbEntity
  8
0
  6
Continuous
 62
     7
100
AcDbLine
 10
156.0749999529314
 20
249.0409819191534
 30
0.0
 11
158.5249999529314
 21
249.0409819191533
 31
0.0
  0
LINE
  5
265
330
84
100
AcDbEntity
  8
0
  6
Continuous
 62
     7
100
AcDbLine
 10
158.5249999529314
 20
249.0403561533485
 30
0.0
 11
156.0749999529314
 21
249.0403561533485
 31
0.0
  0
LINE
  5
266
330
84
100
AcDbEntity
  8
0
  6
Continuous
 62
     7
100
AcDbLine
 10
123.4749999529314
 20
249.0409819191534
 30
0.0
 11
125.9249999529314
 21
249.0409819191534
 31
0.0
  0
LINE
  5
267
330
84
100
AcDbEntity
  8
0
  6
Continuous
 62
     7
100
AcDbLine
 10
117.9749999529314
 20
249.0403561533485
 30
0.0
 11
115.5249999529314
 21
249.0403561533485
 31
0.0
  0
LINE
  5
268
330
84
100
AcDbEntity
  8
0
  6
Continuous
 62
     7
100
AcDbLine
 10
115.5249999529314
 20
249.0409819191534
 30
0.0
 11
117.9749999529314
 21
249.0409819191534
 31
0.0
  0
LINE
  5
269
330
84
100
AcDbEntity
  8
0
  6
Continuous
 62
     7
100
AcDbLine
 10
150.5749999529314
 20
249.0403561533485
 30
0.0
 11
148.1249999529314
 21
249.0403561533485
 31
0.0
  0
LINE
  5
26A
330
84
100
AcDbEntity
  8
0
  6
Continuous
 62
     7
100
AcDbLine
 10
148.1249999529314
 20
249.0409819191534
 30
0.0
 11
148.1249999529314
 21
249.0403561533485
 31
0.0
  0
LINE
  5
26B
330
84
100
AcDbEntity
  8
0
  6
Continuous
 62
     7
100
AcDbLine
 10
148.1249999529314
 20
249.0409819191534
 30
0.0
 11
150.5749999529314
 21
249.0409819191534
 31
0.0
  0
LINE
  5
26C
330
84
100
AcDbEntity
  8
0
  6
Continuous
 62
     7
100
AcDbLine
 10
150.5749999529314
 20
249.0409819191534
 30
0.0
 11
150.5749999529314
 21
249.0403561533485
 31
0.0
  0
LINE
  5
26D
330
84
100
AcDbEntity
  8
0
  6
Continuous
 62
     7
100
AcDbLine
 10
117.9749999529314
 20
249.0409819191534
 30
0.0
 11
117.9749999529314
 21
249.0403561533485
 31
0.0
  0
LINE
  5
26E
330
84
100
AcDbEntity
  8
0
  6
Continuous
 62
     7
100
AcDbLine
 10
143.2749999529314
 20
249.0409819191534
 30
0.0
 11
144.5249999529314
 21
249.0409819191534
 31
0.0
  0
LINE
  5
26F
330
84
100
AcDbEntity
  8
0
  6
Continuous
 62
     7
100
AcDbLine
 10
143.2749999529314
 20
249.0409819191534
 30
0.0
 11
143.2749999529314
 21
249.0403561533485
 31
0.0
  0
LINE
  5
270
330
84
100
AcDbEntity
  8
0
  6
Continuous
 62
     7
100
AcDbLine
 10
144.5249999529314
 20
249.0403561533485
 30
0.0
 11
143.2749999529314
 21
249.0403561533485
 31
0.0
  0
LINE
  5
271
330
84
100
AcDbEntity
  8
0
  6
Continuous
 62
     7
100
AcDbLine
 10
144.5249999529314
 20
249.0409819191534
 30
0.0
 11
144.5249999529314
 21
249.0403561533485
 31
0.0
  0
LINE
  5
272
330
84
100
AcDbEntity
  8
0
  6
Continuous
 62
     7
100
AcDbLine
 10
123.4749999529314
 20
249.0409819191534
 30
0.0
 11
123.4749999529314
 21
249.0403561533485
 31
0.0
  0
LINE
  5
273
330
84
100
AcDbEntity
  8
0
  6
Continuous
 62
     7
100
AcDbLine
 10
129.5249999529314
 20
249.0409819191533
 30
0.0
 11
130.7749999529314
 21
249.0409819191533
 31
0.0
  0
LINE
  5
274
330
84
100
AcDbEntity
  8
0
  6
Continuous
 62
     7
100
AcDbLine
 10
125.9249999529314
 20
249.0409819191534
 30
0.0
 11
125.9249999529314
 21
249.0403561533485
 31
0.0
  0
LINE
  5
275
330
84
100
AcDbEntity
  8
0
  6
Continuous
 62
     7
100
AcDbLine
 10
115.5249999529314
 20
249.0409819191534
 30
0.0
 11
115.5249999529314
 21
249.0403561533485
 31
0.0
  0
LINE
  5
276
330
84
100
AcDbEntity
  8
0
  6
Continuous
 62
     7
100
AcDbLine
 10
166.0249999529314
 20
249.0409819191532
 30
0.0
 11
164.5749999529314
 21
249.0409819191532
 31
0.0
  0
LINE
  5
277
330
84
100
AcDbEntity
  8
0
  6
Continuous
 62
     7
100
AcDbLine
 10
164.5749999529314
 20
249.0403561533483
 30
0.0
 11
164.5749999529314
 21
249.0409819191532
 31
0.0
  0
LINE
  5
278
330
84
100
AcDbEntity
  8
0
  6
Continuous
 62
     7
100
AcDbLine
 10
129.5249999529314
 20
249.0409819191533
 30
0.0
 11
129.5249999529314
 21
249.0403561533485
 31
0.0
  0
LINE
  5
279
330
84
100
AcDbEntity
  8
0
  6
Continuous
 62
     7
100
AcDbLine
 10
130.7749999529314
 20
249.0403561533485
 30
0.0
 11
129.5249999529314
 21
249.0403561533485
 31
0.0
  0
LINE
  5
27A
330
84
100
AcDbEntity
  8
0
  6
Continuous
 62
     7
100
AcDbLine
 10
130.7749999529314
 20
249.0409819191533
 30
0.0
 11
130.7749999529314
 21
249.0403561533485
 31
0.0
  0
LINE
  5
27B
330
84
100
AcDbEntity
  8
0
  6
Continuous
 62
     7
100
AcDbLine
 10
156.0749999529314
 20
249.0409819191534
 30
0.0
 11
156.0749999529314
 21
249.0403561533485
 31
0.0
  0
LINE
  5
27C
330
84
100
AcDbEntity
  8
0
  6
Continuous
 62
     7
100
AcDbLine
 10
125.9249999529314
 20
249.0403561533485
 30
0.0
 11
123.4749999529314
 21
249.0403561533485
 31
0.0
  0
LINE
  5
27D
330
84
100
AcDbEntity
  8
0
  6
Continuous
 62
     7
100
AcDbLine
 10
158.5249999529314
 20
249.0409819191533
 30
0.0
 11
158.5249999529314
 21
249.0403561533485
 31
0.0
  0
LINE
  5
27E
330
84
100
AcDbEntity
  8
0
  6
Continuous
 62
     7
100
AcDbLine
 10
164.5749999529314
 20
249.0403561533483
 30
0.0
 11
166.0249999529314
 21
249.0403561533483
 31
0.0
  0
LINE
  5
27F
330
84
100
AcDbEntity
  8
0
  6
Continuous
 62
     7
100
AcDbLine
 10
166.0249999529314
 20
249.0409819191532
 30
0.0
 11
166.0249999529314
 21
249.0403561533483
 31
0.0
  0
LINE
  5
280
330
84
100
AcDbEntity
  8
0
  6
Continuous
 62
     7
100
AcDbLine
 10
123.4749999529314
 20
249.0403561533485
 30
0.0
 11
123.4749999529314
 21
248.0403563491399
 31
0.0
  0
LINE
  5
281
330
84
100
AcDbEntity
  8
0
  6
Continuous
 62
     7
100
AcDbLine
 10
143.2749999529314
 20
246.2909824575796
 30
0.0
 11
143.2749999529314
 21
246.2903566917748
 31
0.0
  0
LINE
  5
282
330
84
100
AcDbEntity
  8
0
  6
Continuous
 62
     7
100
AcDbLine
 10
144.5249999529314
 20
246.2903566917748
 30
0.0
 11
144.5249999529314
 21
246.2909824575796
 31
0.0
  0
LINE
  5
283
330
84
100
AcDbEntity
  8
0
  6
Continuous
 62
     7
100
AcDbLine
 10
148.1249999529314
 20
246.2909824575802
 30
0.0
 11
148.1249999529314
 21
246.2903566917753
 31
0.0
  0
LINE
  5
284
330
84
100
AcDbEntity
  8
0
  6
Continuous
 62
     7
100
AcDbLine
 10
149.5749999529314
 20
246.2903566917753
 30
0.0
 11
149.5749999529314
 21
246.2909824575802
 31
0.0
  0
LINE
  5
285
330
84
100
AcDbEntity
  8
0
  6
Continuous
 62
     7
100
AcDbLine
 10
158.5249999529314
 20
246.2903566917753
 30
0.0
 11
158.5249999529314
 21
246.2909824575802
 31
0.0
  0
LINE
  5
286
330
84
100
AcDbEntity
  8
0
  6
Continuous
 62
     7
100
AcDbLine
 10
157.0749999529314
 20
246.2903566917753
 30
0.0
 11
149.5749999529314
 21
246.2903566917753
 31
0.0
  0
LINE
  5
287
330
84
100
AcDbEntity
  8
0
  6
Continuous
 62
     7
100
AcDbLine
 10
164.5749999529314
 20
246.2903566917753
 30
0.0
 11
158.5249999529314
 21
246.2903566917753
 31
0.0
  0
LINE
  5
288
330
84
100
AcDbEntity
  8
0
  6
Continuous
 62
     7
100
AcDbLine
 10
148.1249999529314
 20
246.2903566917753
 30
0.0
 11
144.5249999529314
 21
246.2903566917748
 31
0.0
  0
LINE
  5
289
330
84
100
AcDbEntity
  8
0
  6
Continuous
 62
     7
100
AcDbLine
 10
157.0749999529314
 20
246.2909824575802
 30
0.0
 11
157.0749999529314
 21
246.2903566917753
 31
0.0
  0
LINE
  5
28A
330
84
100
AcDbEntity
  8
0
  6
Continuous
 62
     7
100
AcDbLine
 10
124.4749999529314
 20
246.2903566917748
 30
0.0
 11
124.3499999529314
 21
246.2903566917753
 31
0.0
  0
LINE
  5
28B
330
84
100
AcDbEntity
  8
0
  6
Continuous
 62
     7
100
AcDbLine
 10
124.3499999529314
 20
246.2903566917753
 30
0.0
 11
117.0999999529314
 21
246.2903566917753
 31
0.0
  0
LINE
  5
28C
330
84
100
AcDbEntity
  8
0
  6
Continuous
 62
     7
100
AcDbLine
 10
143.2749999529314
 20
246.2903566917748
 30
0.0
 11
130.7749999529314
 21
246.2903566917748
 31
0.0
  0
LINE
  5
28D
330
84
100
AcDbEntity
  8
0
  6
Continuous
 62
     7
100
AcDbLine
 10
117.0999999529314
 20
246.2903566917753
 30
0.0
 11
116.9749999529314
 21
246.2903566917753
 31
0.0
  0
LINE
  5
28E
330
84
100
AcDbEntity
  8
0
  6
Continuous
 62
     7
100
AcDbLine
 10
129.5249999529314
 20
246.2903566917753
 30
0.0
 11
125.9249999529314
 21
246.2903566917753
 31
0.0
  0
LINE
  5
28F
330
84
100
AcDbEntity
  8
0
  6
Continuous
 62
     7
100
AcDbLine
 10
129.5249999529314
 20
246.2909824575802
 30
0.0
 11
129.5249999529314
 21
246.2903566917753
 31
0.0
  0
LINE
  5
290
330
84
100
AcDbEntity
  8
0
  6
Continuous
 62
     7
100
AcDbLine
 10
125.9249999529314
 20
246.2903566917753
 30
0.0
 11
125.9249999529314
 21
246.2909824575802
 31
0.0
  0
LINE
  5
291
330
84
100
AcDbEntity
  8
0
  6
Continuous
 62
     7
100
AcDbLine
 10
116.9749999529314
 20
246.2903566917753
 30
0.0
 11
116.9749999529314
 21
246.2909824575802
 31
0.0
  0
LINE
  5
292
330
84
100
AcDbEntity
  8
0
  6
Continuous
 62
     7
100
AcDbLine
 10
130.7749999529314
 20
246.2903566917748
 30
0.0
 11
130.7749999529314
 21
246.2909824575796
 31
0.0
  0
LINE
  5
293
330
84
100
AcDbEntity
  8
0
  6
Continuous
 62
     7
100
AcDbLine
 10
124.4749999529314
 20
246.2909824575796
 30
0.0
 11
124.4749999529314
 21
246.2903566917748
 31
0.0
  0
LINE
  5
294
330
84
100
AcDbEntity
  8
0
  6
Continuous
 62
     7
100
AcDbLine
 10
109.4749999529314
 20
249.0409819191538
 30
0.0
 11
108.0249999529314
 21
249.0409819191538
 31
0.0
  0
LINE
  5
295
330
84
100
AcDbEntity
  8
0
  6
Continuous
 62
     7
100
AcDbLine
 10
116.9749999529314
 20
246.4153566673014
 30
0.0
 11
116.9749999529314
 21
247.9153563736143
 31
0.0
  0
LINE
  5
296
330
84
100
AcDbEntity
  8
0
  6
Continuous
 62
     7
100
AcDbLine
 10
116.9749999529314
 20
247.9159821394192
 30
0.0
 11
116.9749999529314
 21
248.0403563491399
 31
0.0
  0
LINE
  5
297
330
84
100
AcDbEntity
  8
0
  6
Continuous
 62
     7
100
AcDbLine
 10
108.0249999529314
 20
249.040356153349
 30
0.0
 11
108.0249999529314
 21
244.8403569756722
 31
0.0
  0
LINE
  5
298
330
84
100
AcDbEntity
  8
0
  6
Continuous
 62
     7
100
AcDbLine
 10
109.4749999529314
 20
246.2903566917747
 30
0.0
 11
109.4749999529314
 21
246.2909824575796
 31
0.0
  0
LINE
  5
299
330
84
100
AcDbEntity
  8
0
  6
Continuous
 62
     7
100
AcDbLine
 10
115.5249999529314
 20
246.2903566917753
 30
0.0
 11
109.4749999529314
 21
246.2903566917747
 31
0.0
  0
LINE
  5
29A
330
84
100
AcDbEntity
  8
0
  6
Continuous
 62
     7
100
AcDbLine
 10
109.4749999529314
 20
246.2909824575796
 30
0.0
 11
109.4749999529314
 21
249.0403561533489
 31
0.0
  0
LINE
  5
29B
330
84
100
AcDbEntity
  8
0
  6
Continuous
 62
     7
100
AcDbLine
 10
115.5249999529314
 20
249.0403561533485
 30
0.0
 11
115.5249999529314
 21
246.2909824575802
 31
0.0
  0
LINE
  5
29C
330
84
100
AcDbEntity
  8
0
  6
Continuous
 62
     7
100
AcDbLine
 10
115.5249999529314
 20
246.2909824575802
 30
0.0
 11
115.5249999529314
 21
246.2903566917753
 31
0.0
  0
LINE
  5
29D
330
84
100
AcDbEntity
  8
0
  6
Continuous
 62
     7
100
AcDbLine
 10
109.4749999529314
 20
246.2909824575796
 30
0.0
 11
115.5249999529314
 21
246.2909824575802
 31
0.0
  0
LINE
  5
29E
330
84
100
AcDbEntity
  8
0
  6
Continuous
 62
     7
100
AcDbLine
 10
116.9749999529314
 20
247.9153563736143
 30
0.0
 11
116.9749999529314
 21
247.9159821394192
 31
0.0
  0
LINE
  5
29F
330
84
100
AcDbEntity
  8
0
  6
Continuous
 62
     7
100
AcDbLine
 10
109.4749999529314
 20
249.0403561533489
 30
0.0
 11
109.4749999529314
 21
249.0409819191538
 31
0.0
  0
LINE
  5
2A0
330
84
100
AcDbEntity
  8
0
  6
Continuous
 62
     7
100
AcDbLine
 10
108.0249999529314
 20
249.0409819191538
 30
0.0
 11
108.0249999529314
 21
249.040356153349
 31
0.0
  0
ENDBLK
  5
86
330
84
100
AcDbEntity
  8
0
100
AcDbBlockEnd
  0
BLOCK
  5
89
330
87
100
AcDbEntity
  8
0
100
AcDbBlockBegin
  2
SlideAlu_L_LI_Rev04__12
 70
     0
 10
108.0249999529314
 20
244.8403569756722
 30
0.0
  3
SlideAlu_L_LI_Rev04__12
  1

  0
INSERT
  5
88
330
87
100
AcDbEntity
  8
0
100
AcDbBlockReference
  2
grundkoerper__11
 10
108.0249999529314
 20
244.8403569756722
 30
0.0
  0
ENDBLK
  5
8A
330
87
100
AcDbEntity
  8
0
100
AcDbBlockEnd
  0
BLOCK
  5
8C
330
8B
100
AcDbEntity
  8
0
100
AcDbBlockBegin
  2
Dichtung01_1
 70
     0
 10
116.9749999529314
 20
246.2903566673013
 30
0.0
  3
Dichtung01_1
  1

  0
LINE
  5
2A1
330
8B
100
AcDbEntity
  8
0
  6
Continuous
 62
     7
100
AcDbLine
 10
119.6531990509971
 20
250.0403557617659
 30
0.0
 11
118.0334888421517
 21
248.110060679348
 31
0.0
  0
LINE
  5
2A2
330
8B
100
AcDbEntity
  8
0
  6
Continuous
 62
     2
100
AcDbLine
 10
120.3430636363838
 20
247.540982212841
 30
0.0
 11
120.3430636363838
 21
247.5403564470361
 31
0.0
  0
LINE
  5
2A3
330
8B
100
AcDbEntity
  8
0
  6
Continuous
 62
     7
100
AcDbLine
 10
120.3430636363838
 20
247.540982212841
 30
0.0
 11
123.2249999529314
 21
247.5409822128409
 31
0.0
  0
LINE
  5
2A4
330
8B
100
AcDbEntity
  8
0
  6
Continuous
 62
     2
100
AcDbLine
 10
123.2249999529314
 20
247.5403564470361
 30
0.0
 11
123.2249999529314
 21
247.5409822128409
 31
0.0
  0
LINE
  5
2A5
330
8B
100
AcDbEntity
  8
0
  6
Continuous
 62
     7
100
AcDbLine
 10
123.5999999529314
 20
248.0403563491404
 30
0.0
 11
124.3499999529314
 21
248.0403563491404
 31
0.0
  0
LINE
  5
2A6
330
8B
100
AcDbEntity
  8
0
  6
Continuous
 62
     7
100
AcDbLine
 10
117.5999999529314
 20
247.7903563980882
 30
0.0
 11
117.9749999529314
 21
247.7903563980882
 31
0.0
  0
LINE
  5
2A7
330
8B
100
AcDbEntity
  8
0
  6
Continuous
 62
     7
100
AcDbLine
 10
117.9749999529314
 20
247.7909821638931
 30
0.0
 11
117.9749999529314
 21
247.9493638083894
 31
0.0
  0
LINE
  5
2A8
330
8B
100
AcDbEntity
  8
0
  6
Continuous
 62
     7
100
AcDbLine
 10
117.9749999529314
 20
247.7903563980882
 30
0.0
 11
117.9749999529314
 21
247.7909821638931
 31
0.0
  0
LINE
  5
2A9
330
8B
100
AcDbEntity
  8
0
  6
Continuous
 62
     7
100
AcDbLine
 10
117.5999999529314
 20
247.7903563980882
 30
0.0
 11
117.5999999529314
 21
247.7909821638931
 31
0.0
  0
LINE
  5
2AA
330
8B
100
AcDbEntity
  8
0
  6
Continuous
 62
     7
100
AcDbLine
 10
117.5999999529314
 20
247.7909821638931
 30
0.0
 11
117.9749999529314
 21
247.7909821638931
 31
0.0
  0
LINE
  5
2AB
330
8B
100
AcDbEntity
  8
0
  6
Continuous
 62
     7
100
AcDbLine
 10
120.3430636363838
 20
247.5403564470361
 30
0.0
 11
123.2249999529314
 21
247.5403564470361
 31
0.0
  0
LINE
  5
2AC
330
8B
100
AcDbEntity
  8
0
  6
Continuous
 62
     7
100
AcDbLine
 10
123.4749999529314
 20
247.7909821638931
 30
0.0
 11
123.4749999529314
 21
247.9153563736143
 31
0.0
  0
LINE
  5
2AD
330
8B
100
AcDbEntity
  8
0
  6
Continuous
 62
     7
100
AcDbLine
 10
123.4749999529314
 20
247.7903563980882
 30
0.0
 11
123.4749999529314
 21
247.7909821638931
 31
0.0
  0
LINE
  5
2AE
330
8B
100
AcDbEntity
  8
0
  6
Continuous
 62
     7
100
AcDbLine
 10
123.4749999529314
 20
247.9159821394192
 30
0.0
 11
123.4749999529314
 21
247.9153563736143
 31
0.0
  0
LINE
  5
2AF
330
8B
100
AcDbEntity
  8
0
  6
Continuous
 62
     7
100
AcDbLine
 10
124.4749999529314
 20
247.9153563736143
 30
0.0
 11
124.4749999529314
 21
246.4153566673014
 31
0.0
  0
LINE
  5
2B0
330
8B
100
AcDbEntity
  8
0
  6
Continuous
 62
     7
100
AcDbLine
 10
124.4749999529314
 20
247.9159821394192
 30
0.0
 11
124.4749999529314
 21
247.9153563736143
 31
0.0
  0
LINE
  5
2B1
330
8B
100
AcDbEntity
  8
0
  6
Continuous
 62
     7
100
AcDbLine
 10
117.0999999529314
 20
248.0403563491404
 30
0.0
 11
117.3499999529314
 21
248.0403563491404
 31
0.0
  0
LINE
  5
2B2
330
8B
100
AcDbEntity
  8
0
  6
Continuous
 62
     2
100
AcDbLine
 10
118.0334888421517
 20
248.1106864451528
 30
0.0
 11
118.0334888421517
 21
248.110060679348
 31
0.0
  0
LINE
  5
2B3
330
8B
100
AcDbEntity
  8
0
  6
Continuous
 62
     7
100
AcDbLine
 10
117.9749999529314
 20
247.9493638083894
 30
0.0
 11
117.9749999529314
 21
247.9499895741943
 31
0.0
  0
LINE
  5
2B4
330
8B
100
AcDbEntity
  8
0
  6
Continuous
 62
     7
100
AcDbLine
 10
119.6531990509971
 20
250.0403557617659
 30
0.0
 11
121.1782869360571
 21
250.0403557617659
 31
0.0
  0
LINE
  5
2B5
330
8B
100
AcDbEntity
  8
0
  6
Continuous
 62
     7
100
AcDbLine
 10
124.3499999529314
 20
246.2903566917753
 30
0.0
 11
117.0999999529314
 21
246.2903566917753
 31
0.0
  0
LINE
  5
2B6
330
8B
100
AcDbEntity
  8
0
  6
Continuous
 62
     7
100
AcDbLine
 10
119.9385745736976
 20
248.3342756651763
 30
0.0
 11
121.1782869360571
 21
250.0403557617659
 31
0.0
  0
LINE
  5
2B7
330
8B
100
AcDbEntity
  8
0
  6
Continuous
 62
     7
100
AcDbLine
 10
119.6526742996152
 20
250.0403561533485
 30
0.0
 11
118.0334888421517
 21
248.1106864451528
 31
0.0
  0
LINE
  5
2B8
330
8B
100
AcDbEntity
  8
0
  6
Continuous
 62
     7
100
AcDbLine
 10
116.9749999529314
 20
246.4153566673014
 30
0.0
 11
116.9749999529314
 21
247.9153563736143
 31
0.0
  0
LINE
  5
2B9
330
8B
100
AcDbEntity
  8
0
  6
Continuous
 62
     7
100
AcDbLine
 10
116.9749999529314
 20
247.9153563736143
 30
0.0
 11
116.9749999529314
 21
247.9159821394192
 31
0.0
  0
ARC
  5
2BA
330
8B
100
AcDbEntity
  8
0
  6
Continuous
 62
     7
100
AcDbCircle
 10
120.3430635874053
 20
248.0409821638931
 30
0.0
 40
0.4999999510521622
100
AcDbArc
 50
180.035859354445
 51
270.000005612524
  0
ARC
  5
2BB
330
8B
100
AcDbEntity
  8
0
  6
Continuous
 62
     7
100
AcDbCircle
 10
120.3430635874359
 20
248.0403563980883
 30
0.0
 40
0.499999951052106
100
AcDbArc
 50
180.0000056090163
 51
270.0000056090163
  0
ARC
  5
2BC
330
8B
100
AcDbEntity
  8
0
  6
Continuous
 62
     7
100
AcDbCircle
 10
117.3499999529314
 20
247.7909821638931
 30
0.0
 40
0.25
100
AcDbArc
 50
0.0
 51
85.94509053499718
  0
ARC
  5
2BD
330
8B
100
AcDbEntity
  8
0
  6
Continuous
 62
     7
100
AcDbCircle
 10
117.3500003700306
 20
247.7903559820324
 30
0.0
 40
0.2500003671083224
100
AcDbArc
 50
0.14351025062264
 51
90.00009559195516
  0
ARC
  5
2BE
330
8B
100
AcDbEntity
  8
0
  6
Continuous
 62
     7
100
AcDbCircle
 10
117.0999999406944
 20
247.9153563613774
 30
0.0
 40
0.1249999877630052
100
AcDbArc
 50
89.99999439097392
 51
179.9999943910261
  0
ARC
  5
2BF
330
8B
100
AcDbEntity
  8
0
  6
Continuous
 62
     7
100
AcDbCircle
 10
117.0999999529314
 20
247.9159821394192
 30
0.0
 40
0.1249999999999483
100
AcDbArc
 50
95.73559373207578
 51
180.0
  0
ARC
  5
2C0
330
8B
100
AcDbEntity
  8
0
  6
Continuous
 62
     7
100
AcDbCircle
 10
117.3499997571404
 20
247.7906692809906
 30
0.0
 40
0.2500003915821942
100
AcDbArc
 50
359.9282926144357
 51
0.07170738557727
  0
ARC
  5
2C1
330
8B
100
AcDbEntity
  8
0
  6
Continuous
 62
     7
100
AcDbCircle
 10
123.5999999406944
 20
247.9153563613774
 30
0.0
 40
0.1249999877630052
100
AcDbArc
 50
89.99999439097392
 51
179.9999943910261
  0
ARC
  5
2C2
330
8B
100
AcDbEntity
  8
0
  6
Continuous
 62
     7
100
AcDbCircle
 10
123.2249999774053
 20
247.7903564225621
 30
0.0
 40
0.2499999755260104
100
AcDbArc
 50
269.9999943909934
 51
359.9999943909934
  0
ARC
  5
2C3
330
8B
100
AcDbEntity
  8
0
  6
Continuous
 62
     7
100
AcDbCircle
 10
123.2249999774053
 20
247.790982188367
 30
0.0
 40
0.2499999755260956
100
AcDbArc
 50
269.9999943909934
 51
359.9999943909934
  0
ARC
  5
2C4
330
8B
100
AcDbEntity
  8
0
  6
Continuous
 62
     7
100
AcDbCircle
 10
123.5999999529314
 20
247.9159821394192
 30
0.0
 40
0.1250000000000178
100
AcDbArc
 50
95.73559373239337
 51
180.0
  0
ARC
  5
2C5
330
8B
100
AcDbEntity
  8
0
  6
Continuous
 62
     7
100
AcDbCircle
 10
124.3499999651684
 20
247.9153563613774
 30
0.0
 40
0.1249999877630052
100
AcDbArc
 50
0.00000560897397
 51
90.00000560902609
  0
ARC
  5
2C6
330
8B
100
AcDbEntity
  8
0
  6
Continuous
 62
     7
100
AcDbCircle
 10
124.3499999529314
 20
247.9159821394192
 30
0.0
 40
0.125
100
AcDbArc
 50
0.0
 51
84.26440626756127
  0
ARC
  5
2C7
330
8B
100
AcDbEntity
  8
0
  6
Continuous
 62
     7
100
AcDbCircle
 10
120.3430636194696
 20
248.0403562970899
 30
0.0
 40
0.4999999830858718
100
AcDbArc
 50
143.9962106931604
 51
179.9999940354491
  0
ARC
  5
2C8
330
8B
100
AcDbEntity
  8
0
  6
Continuous
 62
     7
100
AcDbCircle
 10
118.2249999428194
 20
247.9493637806068
 30
0.0
 40
0.2499999898879888
100
AcDbArc
 50
139.9999991564851
 51
179.999993632699
  0
ARC
  5
2C9
330
8B
100
AcDbEntity
  8
0
  6
Continuous
 62
     7
100
AcDbCircle
 10
118.2249999428194
 20
247.9499895464117
 30
0.0
 40
0.2499999898879157
100
AcDbArc
 50
139.999999156505
 51
179.999993632699
  0
ARC
  5
2CA
330
8B
100
AcDbEntity
  8
0
  6
Continuous
 62
     7
100
AcDbCircle
 10
124.3499999651684
 20
246.4153566795383
 30
0.0
 40
0.1249999877630052
100
AcDbArc
 50
269.9999943909739
 51
359.999994391026
  0
ARC
  5
2CB
330
8B
100
AcDbEntity
  8
0
  6
Continuous
 62
     7
100
AcDbCircle
 10
117.0999999406944
 20
246.4153566795383
 30
0.0
 40
0.1249999877630052
100
AcDbArc
 50
180.000005608974
 51
270.0000056090261
  0
ENDBLK
  5
8D
330
8B
100
AcDbEntity
  8
0
100
AcDbBlockEnd
  0
BLOCK
  5
93
330
8E
100
AcDbEntity
  8
0
100
AcDbBlockBegin
  2
SlideAlu_L_22mm
 70
     0
 10
46.02499995293168
 20
244.8403569756722
 30
0.0
  3
SlideAlu_L_22mm
  1

  0
INSERT
  5
8F
330
8E
100
AcDbEntity
  8
0
100
AcDbBlockReference
  2
fenorm_aluminium_C0__9
 10
46.02499995293168
 20
250.0403557617659
 30
0.0
  0
INSERT
  5
90
330
8E
100
AcDbEntity
  8
0
100
AcDbBlockReference
  2
SAW22_Rev01_bauteil__ausgeklinkt_1__10
 10
147.3749999529315
 20
264.3590416679518
 30
0.0
  0
INSERT
  5
91
330
8E
100
AcDbEntity
  8
0
100
AcDbBlockReference
  2
SlideAlu_L_LI_Rev04__12
 10
108.0249999529314
 20
244.8403569756722
 30
0.0
  0
INSERT
  5
92
330
8E
100
AcDbEntity
  8
0
100
AcDbBlockReference
  2
Dichtung01_1
 10
116.9749999529314
 20
246.2903566673013
 30
0.0
  0
ENDBLK
  5
94
330
8E
100
AcDbEntity
  8
0
100
AcDbBlockEnd
  0
BLOCK
  5
97
330
95
100
AcDbEntity
  8
0
100
AcDbBlockBegin
  2
Std_SlideAlu_U22
 70
     0
 10
107.7000000003101
 20
260.2000019171701
 30
0.0
  3
Std_SlideAlu_U22
  1

  0
INSERT
  5
96
330
95
100
AcDbEntity
  8
0
100
AcDbBlockReference
  2
SlideAlu_L_22mm
 10
46.02499995293168
 20
244.8403569756722
 30
0.0
  0
MTEXT
  5
2CC
330
95
100
AcDbEntity
  8
1
 62
     7
100
AcDbMText
 10
78.10000000031006
 20
264.4403550572544
 30
0.0
 40
3.5
 41
0.0
 71
     2
 72
     1
  1
SlideAlu U22
  7
CONVERTER_11
 73
     1
 44
1.32052821128451
  0
DIMENSION
  5
2D8
330
95
100
AcDbEntity
  8
1
100
AcDbDimension
  2
*D38
 10
168.0249999529314
 20
241.800604055203
 30
0.0
 11
100.4249999529314
 21
244.050604055203
 31
0.0
 70
    32
  1
<>
 71
     5
 42
-1.0
 53
0.00013888888889
  3
ME10_DIM_18
100
AcDbAlignedDimension
 13
108.0249999529314
 23
244.8403569756722
 33
0.0
 14
168.0249999529314
 24
244.8403569756722
 34
0.0
100
AcDbRotatedDimension
  0
DIMENSION
  5
2E3
330
95
100
AcDbEntity
  8
1
100
AcDbDimension
  2
*D39
 10
179.9835344631681
 20
275.5590416679519
 30
0.0
 11
177.7335344631681
 21
260.1996993218121
 31
0.0
 70
    32
  1
31
 71
     5
 42
-1.0
 53
90.0
  3
ME10_DIM_19
100
AcDbAlignedDimension
 13
168.0249999529314
 23
244.8403569756722
 33
0.0
 14
169.1749999529315
 24
275.5590416679519
 34
0.0
 50
90.0
100
AcDbRotatedDimension
  0
DIMENSION
  5
2EE
330
95
100
AcDbEntity
  8
1
100
AcDbDimension
  2
*D40
 10
166.0249999529504
 20
267.6216113274556
 30
0.0
 11
156.6999999529441
 21
269.8716113274292
 31
0.0
 70
    33
  1
18.5
 71
     5
 42
-1.0
 53
0.00013888888889
  3
ME10_DIM_20
100
AcDbAlignedDimension
 13
147.3749999529315
 23
274.3590416679518
 33
0.0
 14
166.0249999529314
 24
274.3590416680046
 34
0.0
  0
DIMENSION
  5
2F9
330
95
100
AcDbEntity
  8
1
100
AcDbDimension
  2
*D41
 10
147.3749999529314
 20
279.8790874900869
 30
0.0
 11
158.3749999529315
 21
282.1290874900869
 31
0.0
 70
    32
  1
<>
 71
     5
 42
-1.0
 53
0.00013888888889
  3
ME10_DIM_21
100
AcDbAlignedDimension
 13
169.3749999529315
 23
275.3590416679518
 33
0.0
 14
147.3749999529315
 24
275.5590416679518
 34
0.0
100
AcDbRotatedDimension
  0
ENDBLK
  5
98
330
95
100
AcDbEntity
  8
0
100
AcDbBlockEnd
  0
BLOCK
  5
9A
330
99
100
AcDbEntity
  8
0
100
AcDbBlockBegin
  2
SAW22_Rev01_bauteil__ausgeklinkt_1__13
 70
     0
 10
135.3749999529314
 20
209.7590416677718
 30
0.0
  3
SAW22_Rev01_bauteil__ausgeklinkt_1__13
  1

  0
LINE
  5
2FA
330
99
100
AcDbEntity
  8
0
  6
Continuous
 62
     7
100
AcDbLine
 10
168.2949999529313
 20
218.7590416677717
 30
0.0
 11
168.3749999529313
 21
219.7590416677718
 31
0.0
  0
LINE
  5
2FB
330
99
100
AcDbEntity
  8
0
  6
Continuous
 62
     7
100
AcDbLine
 10
165.0249999529312
 20
209.7590416677718
 30
0.0
 11
164.8249999529312
 21
209.9590416677718
 31
0.0
  0
LINE
  5
2FC
330
99
100
AcDbEntity
  8
0
  6
Continuous
 62
     7
100
AcDbLine
 10
166.0249999529313
 20
219.7590416678245
 30
0.0
 11
166.0249999529312
 21
209.7590416677718
 31
0.0
  0
LINE
  5
2FD
330
99
100
AcDbEntity
  8
0
  6
Continuous
 62
     7
100
AcDbLine
 10
166.0249999529312
 20
209.7590416677718
 30
0.0
 11
165.0249999529312
 21
209.7590416677718
 31
0.0
  0
LINE
  5
2FE
330
99
100
AcDbEntity
  8
0
  6
Continuous
 62
     7
100
AcDbLine
 10
164.8249999529312
 20
209.9590416677718
 30
0.0
 11
164.8249999529312
 21
219.7590416677718
 31
0.0
  0
LINE
  5
2FF
330
99
100
AcDbEntity
  8
0
  6
Continuous
 62
     7
100
AcDbLine
 10
166.0249999529313
 20
219.7590416678245
 30
0.0
 11
168.0249999529313
 21
219.7590416678245
 31
0.0
  0
LINE
  5
300
330
99
100
AcDbEntity
  8
0
  6
Continuous
 62
     7
100
AcDbLine
 10
168.2949999529313
 20
218.7590416677717
 30
0.0
 11
169.3749999529314
 21
218.7590416677717
 31
0.0
  0
LINE
  5
301
330
99
100
AcDbEntity
  8
0
  6
Continuous
 62
     7
100
AcDbLine
 10
168.3749999529313
 20
219.7590416677718
 30
0.0
 11
168.0249999529313
 21
219.7590416678245
 31
0.0
  0
LINE
  5
302
330
99
100
AcDbEntity
  8
0
  6
Continuous
 62
     7
100
AcDbLine
 10
169.3749999529314
 20
220.7590416677718
 30
0.0
 11
169.3749999529314
 21
218.7590416677717
 31
0.0
  0
LINE
  5
303
330
99
100
AcDbEntity
  8
0
  6
Continuous
 62
     7
100
AcDbLine
 10
169.3749999529314
 20
220.7590416677718
 30
0.0
 11
169.1749999529314
 21
220.9590416677718
 31
0.0
  0
LINE
  5
304
330
99
100
AcDbEntity
  8
0
  6
Continuous
 62
     7
100
AcDbLine
 10
135.3749999529314
 20
220.9590416677718
 30
0.0
 11
169.1749999529314
 21
220.9590416677718
 31
0.0
  0
LINE
  5
305
330
99
100
AcDbEntity
  8
0
  6
Continuous
 62
     7
100
AcDbLine
 10
135.3749999529314
 20
219.7590416677718
 30
0.0
 11
135.3749999529314
 21
220.9590416677718
 31
0.0
  0
LINE
  5
306
330
99
100
AcDbEntity
  8
0
  6
Continuous
 62
     7
100
AcDbLine
 10
164.8249999529312
 20
219.7590416677718
 30
0.0
 11
135.3749999529314
 21
219.7590416677718
 31
0.0
  0
ENDBLK
  5
9B
330
99
100
AcDbEntity
  8
0
100
AcDbBlockEnd
  0
BLOCK
  5
9D
330
9C
100
AcDbEntity
  8
0
100
AcDbBlockBegin
  2
fenorm_aluminium_C0__14
 70
     0
 10
46.02499995293156
 20
195.4403557615859
 30
0.0
  3
fenorm_aluminium_C0__14
  1

  0
LINE
  5
307
330
9C
100
AcDbEntity
  8
0
  6
Continuous
 62
     7
100
AcDbLine
 10
46.02499995293156
 20
195.4403561531689
 30
0.0
 11
46.02499995293168
 21
196.9323101566623
 31
0.0
  0
LINE
  5
308
330
9C
100
AcDbEntity
  8
0
  6
Continuous
 62
     7
100
AcDbLine
 10
161.0249999529317
 20
196.9323101566615
 30
0.0
 11
46.02499995293168
 21
196.9323101566623
 31
0.0
  0
LINE
  5
309
330
9C
100
AcDbEntity
  8
0
  6
Continuous
 62
     7
100
AcDbLine
 10
46.02499995293156
 20
195.4403561531689
 30
0.0
 11
119.653199050997
 21
195.4403557615859
 31
0.0
  0
LINE
  5
30A
330
9C
100
AcDbEntity
  8
0
  6
Continuous
 62
     7
100
AcDbLine
 10
121.1782869360569
 20
195.4403557615859
 30
0.0
 11
161.0249999529317
 21
195.4403561531683
 31
0.0
  0
LINE
  5
30B
330
9C
100
AcDbEntity
  8
0
  6
Continuous
 62
     7
100
AcDbLine
 10
119.653199050997
 20
195.4403557615859
 30
0.0
 11
121.1782869360569
 21
195.4403557615859
 31
0.0
  0
LINE
  5
30C
330
9C
100
AcDbEntity
  8
0
  6
Continuous
 62
     7
100
AcDbLine
 10
161.0249999529317
 20
196.9323101566615
 30
0.0
 11
161.0249999529317
 21
195.4403561531683
 31
0.0
  0
ENDBLK
  5
9E
330
9C
100
AcDbEntity
  8
0
100
AcDbBlockEnd
  0
BLOCK
  5
A0
330
9F
100
AcDbEntity
  8
0
100
AcDbBlockBegin
  2
grundkoerper__15
 70
     0
 10
108.0249999529313
 20
190.2403569754922
 30
0.0
  3
grundkoerper__15
  1

  0
LINE
  5
30D
330
9F
100
AcDbEntity
  8
0
  6
Continuous
 62
     7
100
AcDbLine
 10
108.0249999529313
 20
190.2403569754922
 30
0.0
 11
168.0249999529313
 21
190.2403569754922
 31
0.0
  0
LINE
  5
30E
330
9F
100
AcDbEntity
  8
0
  6
Continuous
 62
     7
100
AcDbLine
 10
124.3499999529313
 20
191.6903566915953
 30
0.0
 11
117.0999999529312
 21
191.6903566915953
 31
0.0
  0
LINE
  5
30F
330
9F
100
AcDbEntity
  8
0
  6
Continuous
 62
     7
100
AcDbLine
 10
124.4749999529313
 20
191.6903566915947
 30
0.0
 11
124.3499999529313
 21
191.6903566915953
 31
0.0
  0
LINE
  5
310
330
9F
100
AcDbEntity
  8
0
  6
Continuous
 62
     7
100
AcDbLine
 10
116.9749999529312
 20
191.6909824574001
 30
0.0
 11
117.0875077170937
 21
191.6909824574001
 31
0.0
  0
LINE
  5
311
330
9F
100
AcDbEntity
  8
0
  6
Continuous
 62
     7
100
AcDbLine
 10
157.0749999529313
 20
191.6903566915953
 30
0.0
 11
149.5749999529313
 21
191.6903566915953
 31
0.0
  0
LINE
  5
312
330
9F
100
AcDbEntity
  8
0
  6
Continuous
 62
     7
100
AcDbLine
 10
143.2749999529313
 20
191.6903566915947
 30
0.0
 11
130.7749999529313
 21
191.6903566915947
 31
0.0
  0
LINE
  5
313
330
9F
100
AcDbEntity
  8
0
  6
Continuous
 62
     7
100
AcDbLine
 10
117.0999999529312
 20
191.6903566915953
 30
0.0
 11
116.9749999529312
 21
191.6903566915953
 31
0.0
  0
LINE
  5
314
330
9F
100
AcDbEntity
  8
0
  6
Continuous
 62
     7
100
AcDbLine
 10
148.1249999529313
 20
191.6903566915953
 30
0.0
 11
144.5249999529313
 21
191.6903566915947
 31
0.0
  0
LINE
  5
315
330
9F
100
AcDbEntity
  8
0
  6
Continuous
 62
     7
100
AcDbLine
 10
164.5749999529313
 20
191.6903566915953
 30
0.0
 11
158.5249999529313
 21
191.6903566915953
 31
0.0
  0
LINE
  5
316
330
9F
100
AcDbEntity
  8
0
  6
Continuous
 62
     7
100
AcDbLine
 10
129.5249999529313
 20
191.6903566915953
 30
0.0
 11
125.9249999529312
 21
191.6903566915953
 31
0.0
  0
LINE
  5
317
330
9F
100
AcDbEntity
  8
0
  6
Continuous
 62
     7
100
AcDbLine
 10
115.5249999529313
 20
191.6903566915953
 30
0.0
 11
109.4749999529313
 21
191.6903566915947
 31
0.0
  0
LINE
  5
318
330
9F
100
AcDbEntity
  8
0
  6
Continuous
 62
     7
100
AcDbLine
 10
143.2749999529313
 20
191.6909824573996
 30
0.0
 11
143.2749999529313
 21
191.6903566915947
 31
0.0
  0
LINE
  5
319
330
9F
100
AcDbEntity
  8
0
  6
Continuous
 62
     7
100
AcDbLine
 10
144.5249999529313
 20
191.6903566915947
 30
0.0
 11
144.5249999529313
 21
191.6909824573996
 31
0.0
  0
LINE
  5
31A
330
9F
100
AcDbEntity
  8
0
  6
Continuous
 62
     7
100
AcDbLine
 10
125.9249999529312
 20
191.6903566915953
 30
0.0
 11
125.9249999529312
 21
191.6909824574001
 31
0.0
  0
LINE
  5
31B
330
9F
100
AcDbEntity
  8
0
  6
Continuous
 62
     7
100
AcDbLine
 10
116.9749999529312
 20
191.6903566915953
 30
0.0
 11
116.9749999529312
 21
191.6909824574001
 31
0.0
  0
LINE
  5
31C
330
9F
100
AcDbEntity
  8
0
  6
Continuous
 62
     7
100
AcDbLine
 10
115.5249999529313
 20
191.6909824574001
 30
0.0
 11
115.5249999529313
 21
191.6903566915953
 31
0.0
  0
LINE
  5
31D
330
9F
100
AcDbEntity
  8
0
  6
Continuous
 62
     7
100
AcDbLine
 10
129.5249999529313
 20
191.6909824574001
 30
0.0
 11
129.5249999529313
 21
191.6903566915953
 31
0.0
  0
LINE
  5
31E
330
9F
100
AcDbEntity
  8
0
  6
Continuous
 62
     7
100
AcDbLine
 10
130.7749999529313
 20
191.6903566915947
 30
0.0
 11
130.7749999529313
 21
191.6909824573996
 31
0.0
  0
LINE
  5
31F
330
9F
100
AcDbEntity
  8
0
  6
Continuous
 62
     7
100
AcDbLine
 10
124.4749999529313
 20
191.6909824573996
 30
0.0
 11
124.4749999529313
 21
191.6903566915947
 31
0.0
  0
LINE
  5
320
330
9F
100
AcDbEntity
  8
0
  6
Continuous
 62
     7
100
AcDbLine
 10
109.4749999529313
 20
191.6903566915947
 30
0.0
 11
109.4749999529313
 21
191.6909824573996
 31
0.0
  0
LINE
  5
321
330
9F
100
AcDbEntity
  8
0
  6
Continuous
 62
     7
100
AcDbLine
 10
109.4749999529313
 20
194.4403561531689
 30
0.0
 11
109.4749999529313
 21
194.4409819189738
 31
0.0
  0
LINE
  5
322
330
9F
100
AcDbEntity
  8
0
  6
Continuous
 62
     7
100
AcDbLine
 10
108.0249999529313
 20
194.4409819189738
 30
0.0
 11
108.0249999529313
 21
194.4403561531689
 31
0.0
  0
LINE
  5
323
330
9F
100
AcDbEntity
  8
0
  6
Continuous
 62
     7
100
AcDbLine
 10
109.4749999529313
 20
194.4409819189738
 30
0.0
 11
108.0249999529313
 21
194.4409819189738
 31
0.0
  0
LINE
  5
324
330
9F
100
AcDbEntity
  8
0
  6
Continuous
 62
     7
100
AcDbLine
 10
166.0249999529313
 20
194.4409819189731
 30
0.0
 11
164.5749999529313
 21
194.4409819189731
 31
0.0
  0
LINE
  5
325
330
9F
100
AcDbEntity
  8
0
  6
Continuous
 62
     7
100
AcDbLine
 10
115.5249999529313
 20
194.4409819189734
 30
0.0
 11
117.9749999529312
 21
194.4409819189734
 31
0.0
  0
LINE
  5
326
330
9F
100
AcDbEntity
  8
0
  6
Continuous
 62
     7
100
AcDbLine
 10
123.4749999529312
 20
194.4409819189733
 30
0.0
 11
125.9249999529312
 21
194.4409819189733
 31
0.0
  0
LINE
  5
327
330
9F
100
AcDbEntity
  8
0
  6
Continuous
 62
     7
100
AcDbLine
 10
148.1249999529313
 20
194.4409819189733
 30
0.0
 11
150.5749999529313
 21
194.4409819189733
 31
0.0
  0
LINE
  5
328
330
9F
100
AcDbEntity
  8
0
  6
Continuous
 62
     7
100
AcDbLine
 10
143.2749999529313
 20
194.4409819189733
 30
0.0
 11
144.5249999529313
 21
194.4409819189733
 31
0.0
  0
LINE
  5
329
330
9F
100
AcDbEntity
  8
0
  6
Continuous
 62
     7
100
AcDbLine
 10
117.9749999529312
 20
194.4403561531685
 30
0.0
 11
115.5249999529313
 21
194.4403561531685
 31
0.0
  0
LINE
  5
32A
330
9F
100
AcDbEntity
  8
0
  6
Continuous
 62
     7
100
AcDbLine
 10
123.4749999529312
 20
194.4409819189733
 30
0.0
 11
123.4749999529312
 21
194.4403561531685
 31
0.0
  0
LINE
  5
32B
330
9F
100
AcDbEntity
  8
0
  6
Continuous
 62
     7
100
AcDbLine
 10
148.1249999529313
 20
194.4409819189733
 30
0.0
 11
148.1249999529313
 21
194.4403561531685
 31
0.0
  0
LINE
  5
32C
330
9F
100
AcDbEntity
  8
0
  6
Continuous
 62
     7
100
AcDbLine
 10
115.5249999529313
 20
194.4409819189734
 30
0.0
 11
115.5249999529313
 21
194.4403561531685
 31
0.0
  0
LINE
  5
32D
330
9F
100
AcDbEntity
  8
0
  6
Continuous
 62
     7
100
AcDbLine
 10
117.9749999529312
 20
194.4409819189734
 30
0.0
 11
117.9749999529312
 21
194.4403561531685
 31
0.0
  0
LINE
  5
32E
330
9F
100
AcDbEntity
  8
0
  6
Continuous
 62
     7
100
AcDbLine
 10
123.4749999529312
 20
194.4403561531685
 30
0.0
 11
123.4749999529312
 21
193.4403563489598
 31
0.0
  0
LINE
  5
32F
330
9F
100
AcDbEntity
  8
0
  6
Continuous
 62
     7
100
AcDbLine
 10
117.3499999529312
 20
193.4403563489604
 30
0.0
 11
117.9749999529312
 21
193.4403563489599
 31
0.0
  0
LINE
  5
330
330
9F
100
AcDbEntity
  8
0
  6
Continuous
 62
     7
100
AcDbLine
 10
116.9749999529312
 20
193.4403563489599
 30
0.0
 11
117.0999999529312
 21
193.4403563489604
 31
0.0
  0
LINE
  5
331
330
9F
100
AcDbEntity
  8
0
  6
Continuous
 62
     7
100
AcDbLine
 10
117.0999999529312
 20
193.4403563489604
 30
0.0
 11
117.3499999529312
 21
193.4403563489604
 31
0.0
  0
LINE
  5
332
330
9F
100
AcDbEntity
  8
0
  6
Continuous
 62
     7
100
AcDbLine
 10
117.9749999529312
 20
193.4403563489599
 30
0.0
 11
117.9749999529312
 21
194.4403561531685
 31
0.0
  0
LINE
  5
333
330
9F
100
AcDbEntity
  8
0
  6
Continuous
 62
     7
100
AcDbLine
 10
123.5999999529312
 20
193.4403563489604
 30
0.0
 11
124.3499999529313
 21
193.4403563489604
 31
0.0
  0
LINE
  5
334
330
9F
100
AcDbEntity
  8
0
  6
Continuous
 62
     7
100
AcDbLine
 10
124.3499999529313
 20
193.4403563489604
 30
0.0
 11
124.4749999529313
 21
193.4403563489598
 31
0.0
  0
LINE
  5
335
330
9F
100
AcDbEntity
  8
0
  6
Continuous
 62
     7
100
AcDbLine
 10
123.4749999529312
 20
193.4403563489598
 30
0.0
 11
123.5999999529312
 21
193.4403563489604
 31
0.0
  0
LINE
  5
336
330
9F
100
AcDbEntity
  8
0
  6
Continuous
 62
     7
100
AcDbLine
 10
116.9749999529312
 20
191.8153566671214
 30
0.0
 11
116.9749999529312
 21
193.3153563734343
 31
0.0
  0
LINE
  5
337
330
9F
100
AcDbEntity
  8
0
  6
Continuous
 62
     7
100
AcDbLine
 10
116.9749999529312
 20
193.3159821392392
 30
0.0
 11
116.9749999529312
 21
193.4403563489599
 31
0.0
  0
LINE
  5
338
330
9F
100
AcDbEntity
  8
0
  6
Continuous
 62
     7
100
AcDbLine
 10
116.9749999529312
 20
193.3153563734343
 30
0.0
 11
116.9749999529312
 21
193.3159821392392
 31
0.0
  0
LINE
  5
339
330
9F
100
AcDbEntity
  8
0
  6
Continuous
 62
     7
100
AcDbLine
 10
116.9749999529312
 20
191.6909824574001
 30
0.0
 11
116.9749999529312
 21
191.8153566671214
 31
0.0
  0
LINE
  5
33A
330
9F
100
AcDbEntity
  8
0
  6
Continuous
 62
     7
100
AcDbLine
 10
148.1249999529313
 20
194.4403561531685
 30
0.0
 11
148.1249999529313
 21
191.6909824574001
 31
0.0
  0
LINE
  5
33B
330
9F
100
AcDbEntity
  8
0
  6
Continuous
 62
     7
100
AcDbLine
 10
124.4749999529313
 20
193.3153563734344
 30
0.0
 11
124.4749999529313
 21
191.8153566671214
 31
0.0
  0
LINE
  5
33C
330
9F
100
AcDbEntity
  8
0
  6
Continuous
 62
     7
100
AcDbLine
 10
124.4749999529313
 20
193.4403563489598
 30
0.0
 11
124.4749999529313
 21
193.3159821392392
 31
0.0
  0
LINE
  5
33D
330
9F
100
AcDbEntity
  8
0
  6
Continuous
 62
     7
100
AcDbLine
 10
124.4749999529313
 20
193.3159821392392
 30
0.0
 11
124.4749999529313
 21
193.3153563734344
 31
0.0
  0
LINE
  5
33E
330
9F
100
AcDbEntity
  8
0
  6
Continuous
 62
     7
100
AcDbLine
 10
115.5249999529313
 20
194.4403561531685
 30
0.0
 11
115.5249999529313
 21
191.6909824574001
 31
0.0
  0
LINE
  5
33F
330
9F
100
AcDbEntity
  8
0
  6
Continuous
 62
     7
100
AcDbLine
 10
109.4749999529313
 20
191.6909824573996
 30
0.0
 11
109.4749999529313
 21
194.4403561531689
 31
0.0
  0
LINE
  5
340
330
9F
100
AcDbEntity
  8
0
  6
Continuous
 62
     7
100
AcDbLine
 10
148.1249999529313
 20
191.6909824574001
 30
0.0
 11
148.1249999529313
 21
191.6903566915953
 31
0.0
  0
LINE
  5
341
330
9F
100
AcDbEntity
  8
0
  6
Continuous
 62
     7
100
AcDbLine
 10
108.0249999529313
 20
194.4403561531689
 30
0.0
 11
108.0249999529313
 21
190.2403569754922
 31
0.0
  0
LINE
  5
342
330
9F
100
AcDbEntity
  8
0
  6
Continuous
 62
     7
100
AcDbLine
 10
166.0249999529313
 20
219.7590416678245
 30
0.0
 11
166.0249999529312
 21
209.7590416677718
 31
0.0
  0
LINE
  5
343
330
9F
100
AcDbEntity
  8
0
  6
Continuous
 62
     7
100
AcDbLine
 10
166.0249999529312
 20
209.7590416677718
 30
0.0
 11
166.0249999529313
 21
194.4409819189731
 31
0.0
  0
LINE
  5
344
330
9F
100
AcDbEntity
  8
0
  6
Continuous
 62
     7
100
AcDbLine
 10
168.0249999529313
 20
219.7590416678245
 30
0.0
 11
168.0249999529313
 21
190.2403569754922
 31
0.0
  0
LINE
  5
345
330
9F
100
AcDbEntity
  8
0
  6
Continuous
 62
     7
100
AcDbLine
 10
166.0249999529313
 20
194.4409819189731
 30
0.0
 11
166.0249999529313
 21
194.4403561531682
 31
0.0
  0
LINE
  5
346
330
9F
100
AcDbEntity
  8
0
  6
Continuous
 62
     7
100
AcDbLine
 10
164.5749999529313
 20
191.6903566915953
 30
0.0
 11
164.5749999529313
 21
191.6909824574001
 31
0.0
  0
LINE
  5
347
330
9F
100
AcDbEntity
  8
0
  6
Continuous
 62
     7
100
AcDbLine
 10
166.0249999529313
 20
219.7590416678245
 30
0.0
 11
168.0249999529313
 21
219.7590416678245
 31
0.0
  0
LINE
  5
348
330
9F
100
AcDbEntity
  8
0
  6
Continuous
 62
     7
100
AcDbLine
 10
124.4749999529313
 20
191.8153566671214
 30
0.0
 11
124.4749999529313
 21
191.6909824573996
 31
0.0
  0
LINE
  5
349
330
9F
100
AcDbEntity
  8
0
  6
Continuous
 62
     7
100
AcDbLine
 10
125.9249999529312
 20
191.6909824574001
 30
0.0
 11
125.9249999529312
 21
194.4403561531684
 31
0.0
  0
LINE
  5
34A
330
9F
100
AcDbEntity
  8
0
  6
Continuous
 62
     7
100
AcDbLine
 10
130.7749999529313
 20
191.6909824573996
 30
0.0
 11
130.7749999529313
 21
194.4403561531684
 31
0.0
  0
LINE
  5
34B
330
9F
100
AcDbEntity
  8
0
  6
Continuous
 62
     7
100
AcDbLine
 10
130.7749999529313
 20
194.4409819189733
 30
0.0
 11
130.7749999529313
 21
194.4403561531684
 31
0.0
  0
LINE
  5
34C
330
9F
100
AcDbEntity
  8
0
  6
Continuous
 62
     7
100
AcDbLine
 10
129.5249999529313
 20
194.4409819189733
 30
0.0
 11
130.7749999529313
 21
194.4409819189733
 31
0.0
  0
LINE
  5
34D
330
9F
100
AcDbEntity
  8
0
  6
Continuous
 62
     7
100
AcDbLine
 10
150.5749999529313
 20
194.4409819189733
 30
0.0
 11
150.5749999529313
 21
194.4403561531684
 31
0.0
  0
LINE
  5
34E
330
9F
100
AcDbEntity
  8
0
  6
Continuous
 62
     7
100
AcDbLine
 10
125.9249999529312
 20
194.4409819189733
 30
0.0
 11
125.9249999529312
 21
194.4403561531684
 31
0.0
  0
LINE
  5
34F
330
9F
100
AcDbEntity
  8
0
  6
Continuous
 62
     7
100
AcDbLine
 10
144.5249999529313
 20
194.4403561531685
 30
0.0
 11
143.2749999529313
 21
194.4403561531685
 31
0.0
  0
LINE
  5
350
330
9F
100
AcDbEntity
  8
0
  6
Continuous
 62
     7
100
AcDbLine
 10
129.5249999529313
 20
194.4409819189733
 30
0.0
 11
129.5249999529313
 21
194.4403561531684
 31
0.0
  0
LINE
  5
351
330
9F
100
AcDbEntity
  8
0
  6
Continuous
 62
     7
100
AcDbLine
 10
129.5249999529313
 20
194.4403561531684
 30
0.0
 11
129.5249999529313
 21
191.6909824574001
 31
0.0
  0
LINE
  5
352
330
9F
100
AcDbEntity
  8
0
  6
Continuous
 62
     7
100
AcDbLine
 10
144.5249999529313
 20
191.6909824573996
 30
0.0
 11
144.5249999529313
 21
194.4403561531685
 31
0.0
  0
LINE
  5
353
330
9F
100
AcDbEntity
  8
0
  6
Continuous
 62
     7
100
AcDbLine
 10
164.5749999529313
 20
194.4403561531683
 30
0.0
 11
164.5749999529313
 21
194.4409819189731
 31
0.0
  0
LINE
  5
354
330
9F
100
AcDbEntity
  8
0
  6
Continuous
 62
     7
100
AcDbLine
 10
143.2749999529313
 20
194.4409819189733
 30
0.0
 11
143.2749999529313
 21
194.4403561531685
 31
0.0
  0
LINE
  5
355
330
9F
100
AcDbEntity
  8
0
  6
Continuous
 62
     7
100
AcDbLine
 10
158.5249999529313
 20
194.4409819189733
 30
0.0
 11
158.5249999529313
 21
194.4403561531684
 31
0.0
  0
LINE
  5
356
330
9F
100
AcDbEntity
  8
0
  6
Continuous
 62
     7
100
AcDbLine
 10
156.0749999529313
 20
194.4409819189733
 30
0.0
 11
156.0749999529313
 21
194.4403561531684
 31
0.0
  0
LINE
  5
357
330
9F
100
AcDbEntity
  8
0
  6
Continuous
 62
     7
100
AcDbLine
 10
156.0749999529313
 20
194.4409819189733
 30
0.0
 11
158.5249999529313
 21
194.4409819189733
 31
0.0
  0
LINE
  5
358
330
9F
100
AcDbEntity
  8
0
  6
Continuous
 62
     7
100
AcDbLine
 10
144.5249999529313
 20
194.4409819189733
 30
0.0
 11
144.5249999529313
 21
194.4403561531685
 31
0.0
  0
LINE
  5
359
330
9F
100
AcDbEntity
  8
0
  6
Continuous
 62
     7
100
AcDbLine
 10
143.2749999529313
 20
194.4403561531685
 30
0.0
 11
143.2749999529313
 21
191.6909824573996
 31
0.0
  0
LINE
  5
35A
330
9F
100
AcDbEntity
  8
0
  6
Continuous
 62
     7
100
AcDbLine
 10
164.5749999529313
 20
191.6909824574001
 30
0.0
 11
164.5749999529313
 21
194.4403561531683
 31
0.0
  0
LINE
  5
35B
330
9F
100
AcDbEntity
  8
0
  6
Continuous
 62
     7
100
AcDbLine
 10
158.5249999529313
 20
191.6909824574001
 30
0.0
 11
158.5249999529313
 21
194.4403561531684
 31
0.0
  0
LINE
  5
35C
330
9F
100
AcDbEntity
  8
0
  6
Continuous
 62
     7
100
AcDbLine
 10
156.0749999529313
 20
194.4403561531684
 30
0.0
 11
156.0749999529313
 21
193.4403563489598
 31
0.0
  0
LINE
  5
35D
330
9F
100
AcDbEntity
  8
0
  6
Continuous
 62
     7
100
AcDbLine
 10
156.0749999529313
 20
193.4403563489598
 30
0.0
 11
157.0749999529313
 21
193.4403563489598
 31
0.0
  0
LINE
  5
35E
330
9F
100
AcDbEntity
  8
0
  6
Continuous
 62
     7
100
AcDbLine
 10
157.0749999529313
 20
193.4403563489598
 30
0.0
 11
157.0749999529313
 21
191.6909824574001
 31
0.0
  0
LINE
  5
35F
330
9F
100
AcDbEntity
  8
0
  6
Continuous
 62
     7
100
AcDbLine
 10
149.5749999529313
 20
191.6909824574001
 30
0.0
 11
149.5749999529313
 21
193.4403563489598
 31
0.0
  0
LINE
  5
360
330
9F
100
AcDbEntity
  8
0
  6
Continuous
 62
     7
100
AcDbLine
 10
149.5749999529313
 20
193.4403563489598
 30
0.0
 11
150.5749999529313
 21
193.4403563489598
 31
0.0
  0
LINE
  5
361
330
9F
100
AcDbEntity
  8
0
  6
Continuous
 62
     7
100
AcDbLine
 10
150.5749999529313
 20
193.4403563489598
 30
0.0
 11
150.5749999529313
 21
194.4403561531684
 31
0.0
  0
LINE
  5
362
330
9F
100
AcDbEntity
  8
0
  6
Continuous
 62
     7
100
AcDbLine
 10
149.5749999529313
 20
191.6903566915953
 30
0.0
 11
149.5749999529313
 21
191.6909824574001
 31
0.0
  0
LINE
  5
363
330
9F
100
AcDbEntity
  8
0
  6
Continuous
 62
     7
100
AcDbLine
 10
157.0749999529313
 20
191.6909824574001
 30
0.0
 11
157.0749999529313
 21
191.6903566915953
 31
0.0
  0
LINE
  5
364
330
9F
100
AcDbEntity
  8
0
  6
Continuous
 62
     7
100
AcDbLine
 10
158.5249999529313
 20
191.6903566915953
 30
0.0
 11
158.5249999529313
 21
191.6909824574001
 31
0.0
  0
LINE
  5
365
330
9F
100
AcDbEntity
  8
0
  6
Continuous
 62
     7
100
AcDbLine
 10
149.5749999529313
 20
191.6909824574001
 30
0.0
 11
157.0749999529313
 21
191.6909824574001
 31
0.0
  0
LINE
  5
366
330
9F
100
AcDbEntity
  8
0
  6
Continuous
 62
     7
100
AcDbLine
 10
130.7749999529313
 20
191.6909824573996
 30
0.0
 11
143.2749999529313
 21
191.6909824573996
 31
0.0
  0
LINE
  5
367
330
9F
100
AcDbEntity
  8
0
  6
Continuous
 62
     7
100
AcDbLine
 10
124.3624921887687
 20
191.6909824574001
 30
0.0
 11
124.4749999529313
 21
191.6909824573996
 31
0.0
  0
LINE
  5
368
330
9F
100
AcDbEntity
  8
0
  6
Continuous
 62
     7
100
AcDbLine
 10
144.5249999529313
 20
191.6909824573996
 30
0.0
 11
148.1249999529313
 21
191.6909824574001
 31
0.0
  0
LINE
  5
369
330
9F
100
AcDbEntity
  8
0
  6
Continuous
 62
     7
100
AcDbLine
 10
158.5249999529313
 20
191.6909824574001
 30
0.0
 11
164.5749999529313
 21
191.6909824574001
 31
0.0
  0
LINE
  5
36A
330
9F
100
AcDbEntity
  8
0
  6
Continuous
 62
     7
100
AcDbLine
 10
125.9249999529312
 20
191.6909824574001
 30
0.0
 11
129.5249999529313
 21
191.6909824574001
 31
0.0
  0
LINE
  5
36B
330
9F
100
AcDbEntity
  8
0
  6
Continuous
 62
     7
100
AcDbLine
 10
109.4749999529313
 20
191.6909824573996
 30
0.0
 11
115.5249999529313
 21
191.6909824574001
 31
0.0
  0
LINE
  5
36C
330
9F
100
AcDbEntity
  8
0
  6
Continuous
 62
     7
100
AcDbLine
 10
108.0249999529313
 20
194.4403561531689
 30
0.0
 11
109.4749999529313
 21
194.4403561531689
 31
0.0
  0
LINE
  5
36D
330
9F
100
AcDbEntity
  8
0
  6
Continuous
 62
     7
100
AcDbLine
 10
164.5749999529313
 20
194.4403561531683
 30
0.0
 11
166.0249999529313
 21
194.4403561531682
 31
0.0
  0
LINE
  5
36E
330
9F
100
AcDbEntity
  8
0
  6
Continuous
 62
     7
100
AcDbLine
 10
125.9249999529312
 20
194.4403561531684
 30
0.0
 11
123.4749999529312
 21
194.4403561531685
 31
0.0
  0
LINE
  5
36F
330
9F
100
AcDbEntity
  8
0
  6
Continuous
 62
     7
100
AcDbLine
 10
158.5249999529313
 20
194.4403561531684
 30
0.0
 11
156.0749999529313
 21
194.4403561531684
 31
0.0
  0
LINE
  5
370
330
9F
100
AcDbEntity
  8
0
  6
Continuous
 62
     7
100
AcDbLine
 10
150.5749999529313
 20
194.4403561531684
 30
0.0
 11
148.1249999529313
 21
194.4403561531685
 31
0.0
  0
LINE
  5
371
330
9F
100
AcDbEntity
  8
0
  6
Continuous
 62
     7
100
AcDbLine
 10
130.7749999529313
 20
194.4403561531684
 30
0.0
 11
129.5249999529313
 21
194.4403561531684
 31
0.0
  0
ENDBLK
  5
A1
330
9F
100
AcDbEntity
  8
0
100
AcDbBlockEnd
  0
BLOCK
  5
A4
330
A2
100
AcDbEntity
  8
0
100
AcDbBlockBegin
  2
SlideAlu_L_LI_Rev04__16
 70
     0
 10
108.0249999529313
 20
190.2403569754922
 30
0.0
  3
SlideAlu_L_LI_Rev04__16
  1

  0
INSERT
  5
A3
330
A2
100
AcDbEntity
  8
0
100
AcDbBlockReference
  2
grundkoerper__15
 10
108.0249999529313
 20
190.2403569754922
 30
0.0
  0
ENDBLK
  5
A5
330
A2
100
AcDbEntity
  8
0
100
AcDbBlockEnd
  0
BLOCK
  5
A7
330
A6
100
AcDbEntity
  8
0
100
AcDbBlockBegin
  2
Dichtung01_1_1
 70
     0
 10
116.9749999529312
 20
191.6903566671213
 30
0.0
  3
Dichtung01_1_1
  1

  0
LINE
  5
372
330
A6
100
AcDbEntity
  8
0
  6
Continuous
 62
     7
100
AcDbLine
 10
119.653199050997
 20
195.4403557615859
 30
0.0
 11
118.0334888421515
 21
193.510060679168
 31
0.0
  0
LINE
  5
373
330
A6
100
AcDbEntity
  8
0
  6
Continuous
 62
     7
100
AcDbLine
 10
124.3499999529313
 20
191.6903566915953
 30
0.0
 11
117.0999999529312
 21
191.6903566915953
 31
0.0
  0
LINE
  5
374
330
A6
100
AcDbEntity
  8
0
  6
Continuous
 62
     7
100
AcDbLine
 10
119.653199050997
 20
195.4403557615859
 30
0.0
 11
121.1782869360569
 21
195.4403557615859
 31
0.0
  0
LINE
  5
375
330
A6
100
AcDbEntity
  8
0
  6
Continuous
 62
     7
100
AcDbLine
 10
117.0999999529312
 20
193.4403563489604
 30
0.0
 11
117.3499999529312
 21
193.4403563489604
 31
0.0
  0
LINE
  5
376
330
A6
100
AcDbEntity
  8
0
  6
Continuous
 62
     2
100
AcDbLine
 10
118.0334888421515
 20
193.5106864449728
 30
0.0
 11
118.0334888421515
 21
193.510060679168
 31
0.0
  0
LINE
  5
377
330
A6
100
AcDbEntity
  8
0
  6
Continuous
 62
     7
100
AcDbLine
 10
123.5999999529312
 20
193.4403563489604
 30
0.0
 11
124.3499999529313
 21
193.4403563489604
 31
0.0
  0
LINE
  5
378
330
A6
100
AcDbEntity
  8
0
  6
Continuous
 62
     7
100
AcDbLine
 10
116.9749999529312
 20
191.8153566671214
 30
0.0
 11
116.9749999529312
 21
193.3153563734343
 31
0.0
  0
LINE
  5
379
330
A6
100
AcDbEntity
  8
0
  6
Continuous
 62
     7
100
AcDbLine
 10
116.9749999529312
 20
193.3153563734343
 30
0.0
 11
116.9749999529312
 21
193.3159821392392
 31
0.0
  0
LINE
  5
37A
330
A6
100
AcDbEntity
  8
0
  6
Continuous
 62
     2
100
AcDbLine
 10
123.2249999529312
 20
192.9403564468561
 30
0.0
 11
123.2249999529312
 21
192.9409822126609
 31
0.0
  0
LINE
  5
37B
330
A6
100
AcDbEntity
  8
0
  6
Continuous
 62
     7
100
AcDbLine
 10
123.4749999529312
 20
193.1903563979082
 30
0.0
 11
123.4749999529312
 21
193.1909821637131
 31
0.0
  0
LINE
  5
37C
330
A6
100
AcDbEntity
  8
0
  6
Continuous
 62
     7
100
AcDbLine
 10
123.4749999529312
 20
193.1909821637131
 30
0.0
 11
123.4749999529312
 21
193.3153563734344
 31
0.0
  0
LINE
  5
37D
330
A6
100
AcDbEntity
  8
0
  6
Continuous
 62
     7
100
AcDbLine
 10
123.4749999529312
 20
193.3159821392392
 30
0.0
 11
123.4749999529312
 21
193.3153563734344
 31
0.0
  0
LINE
  5
37E
330
A6
100
AcDbEntity
  8
0
  6
Continuous
 62
     7
100
AcDbLine
 10
120.3430636363836
 20
192.9403564468561
 30
0.0
 11
123.2249999529312
 21
192.9403564468561
 31
0.0
  0
LINE
  5
37F
330
A6
100
AcDbEntity
  8
0
  6
Continuous
 62
     7
100
AcDbLine
 10
120.3430636363836
 20
192.940982212661
 30
0.0
 11
123.2249999529312
 21
192.9409822126609
 31
0.0
  0
LINE
  5
380
330
A6
100
AcDbEntity
  8
0
  6
Continuous
 62
     2
100
AcDbLine
 10
120.3430636363836
 20
192.940982212661
 30
0.0
 11
120.3430636363836
 21
192.9403564468561
 31
0.0
  0
LINE
  5
381
330
A6
100
AcDbEntity
  8
0
  6
Continuous
 62
     7
100
AcDbLine
 10
124.4749999529313
 20
193.3153563734344
 30
0.0
 11
124.4749999529313
 21
191.8153566671214
 31
0.0
  0
LINE
  5
382
330
A6
100
AcDbEntity
  8
0
  6
Continuous
 62
     7
100
AcDbLine
 10
124.4749999529313
 20
193.3159821392392
 30
0.0
 11
124.4749999529313
 21
193.3153563734344
 31
0.0
  0
LINE
  5
383
330
A6
100
AcDbEntity
  8
0
  6
Continuous
 62
     7
100
AcDbLine
 10
117.5999999529312
 20
193.1903563979082
 30
0.0
 11
117.9749999529312
 21
193.1903563979082
 31
0.0
  0
LINE
  5
384
330
A6
100
AcDbEntity
  8
0
  6
Continuous
 62
     7
100
AcDbLine
 10
117.9749999529312
 20
193.1909821637131
 30
0.0
 11
117.9749999529312
 21
193.3493638082094
 31
0.0
  0
LINE
  5
385
330
A6
100
AcDbEntity
  8
0
  6
Continuous
 62
     7
100
AcDbLine
 10
117.9749999529312
 20
193.3493638082094
 30
0.0
 11
117.9749999529312
 21
193.3499895740143
 31
0.0
  0
LINE
  5
386
330
A6
100
AcDbEntity
  8
0
  6
Continuous
 62
     7
100
AcDbLine
 10
117.9749999529312
 20
193.1903563979082
 30
0.0
 11
117.9749999529312
 21
193.1909821637131
 31
0.0
  0
LINE
  5
387
330
A6
100
AcDbEntity
  8
0
  6
Continuous
 62
     7
100
AcDbLine
 10
117.5999999529312
 20
193.1909821637131
 30
0.0
 11
117.9749999529312
 21
193.1909821637131
 31
0.0
  0
LINE
  5
388
330
A6
100
AcDbEntity
  8
0
  6
Continuous
 62
     7
100
AcDbLine
 10
117.5999999529312
 20
193.1903563979082
 30
0.0
 11
117.5999999529312
 21
193.1909821637131
 31
0.0
  0
LINE
  5
389
330
A6
100
AcDbEntity
  8
0
  6
Continuous
 62
     7
100
AcDbLine
 10
119.652674299615
 20
195.4403561531686
 30
0.0
 11
118.0334888421515
 21
193.5106864449728
 31
0.0
  0
LINE
  5
38A
330
A6
100
AcDbEntity
  8
0
  6
Continuous
 62
     7
100
AcDbLine
 10
119.9385745736975
 20
193.7342756649963
 30
0.0
 11
121.1782869360569
 21
195.4403557615859
 31
0.0
  0
ARC
  5
38B
330
A6
100
AcDbEntity
  8
0
  6
Continuous
 62
     7
100
AcDbCircle
 10
120.3430635874051
 20
193.4409821637131
 30
0.0
 40
0.4999999510521621
100
AcDbArc
 50
180.0358593544352
 51
270.000005612524
  0
ARC
  5
38C
330
A6
100
AcDbEntity
  8
0
  6
Continuous
 62
     7
100
AcDbCircle
 10
120.3430635874358
 20
193.4403563979082
 30
0.0
 40
0.4999999510521912
100
AcDbArc
 50
180.0000056090065
 51
270.0000056090066
  0
ARC
  5
38D
330
A6
100
AcDbEntity
  8
0
  6
Continuous
 62
     7
100
AcDbCircle
 10
117.3500003700305
 20
193.1903559818524
 30
0.0
 40
0.2500003671082229
100
AcDbArc
 50
0.1435102506227
 51
90.00009559197795
  0
ARC
  5
38E
330
A6
100
AcDbEntity
  8
0
  6
Continuous
 62
     7
100
AcDbCircle
 10
123.2249999774052
 20
193.1903564223822
 30
0.0
 40
0.2499999755260956
100
AcDbArc
 50
269.9999943909706
 51
359.9999943909739
  0
ARC
  5
38F
330
A6
100
AcDbEntity
  8
0
  6
Continuous
 62
     7
100
AcDbCircle
 10
120.3430636194695
 20
193.4403562969099
 30
0.0
 40
0.4999999830858551
100
AcDbArc
 50
143.996210693163
 51
179.9999940354524
  0
ARC
  5
390
330
A6
100
AcDbEntity
  8
0
  6
Continuous
 62
     7
100
AcDbCircle
 10
123.5999999406943
 20
193.3153563611974
 30
0.0
 40
0.1249999877630052
100
AcDbArc
 50
89.99999439101953
 51
179.9999943909609
  0
ARC
  5
391
330
A6
100
AcDbEntity
  8
0
  6
Continuous
 62
     7
100
AcDbCircle
 10
123.2249999774052
 20
193.190982188187
 30
0.0
 40
0.2499999755260956
100
AcDbArc
 50
269.9999943909706
 51
359.9999943909934
  0
ARC
  5
392
330
A6
100
AcDbEntity
  8
0
  6
Continuous
 62
     7
100
AcDbCircle
 10
123.5999999529312
 20
193.3159821392392
 30
0.0
 40
0.1249999999999827
100
AcDbArc
 50
95.73559373262412
 51
180.0
  0
ARC
  5
393
330
A6
100
AcDbEntity
  8
0
  6
Continuous
 62
     7
100
AcDbCircle
 10
117.3499999529313
 20
193.1909821637131
 30
0.0
 40
0.2499999999999005
100
AcDbArc
 50
0.0
 51
85.94509053483475
  0
ARC
  5
394
330
A6
100
AcDbEntity
  8
0
  6
Continuous
 62
     7
100
AcDbCircle
 10
117.0999999406943
 20
193.3153563611974
 30
0.0
 40
0.1249999877630052
100
AcDbArc
 50
89.99999439101953
 51
179.999994391013
  0
ARC
  5
395
330
A6
100
AcDbEntity
  8
0
  6
Continuous
 62
     7
100
AcDbCircle
 10
117.0999999529313
 20
193.3159821392392
 30
0.0
 40
0.1250000000000362
100
AcDbArc
 50
95.73559373234671
 51
180.0
  0
ARC
  5
396
330
A6
100
AcDbEntity
  8
0
  6
Continuous
 62
     7
100
AcDbCircle
 10
124.3499999651682
 20
193.3153563611974
 30
0.0
 40
0.1249999877631047
100
AcDbArc
 50
0.00000560903911
 51
90.00000560898047
  0
ARC
  5
397
330
A6
100
AcDbEntity
  8
0
  6
Continuous
 62
     7
100
AcDbCircle
 10
124.3499999529313
 20
193.3159821392392
 30
0.0
 40
0.125
100
AcDbArc
 50
0.0
 51
84.26440626733053
  0
ARC
  5
398
330
A6
100
AcDbEntity
  8
0
  6
Continuous
 62
     7
100
AcDbCircle
 10
118.2249999428192
 20
193.3499895462317
 30
0.0
 40
0.2499999898879157
100
AcDbArc
 50
139.999999156505
 51
179.999993632699
  0
ARC
  5
399
330
A6
100
AcDbEntity
  8
0
  6
Continuous
 62
     7
100
AcDbCircle
 10
117.3499997571402
 20
193.1906692808107
 30
0.0
 40
0.2500003915821943
100
AcDbArc
 50
359.9282926144163
 51
0.07170738555773
  0
ARC
  5
39A
330
A6
100
AcDbEntity
  8
0
  6
Continuous
 62
     7
100
AcDbCircle
 10
118.2249999428192
 20
193.3493637804268
 30
0.0
 40
0.2499999898879705
100
AcDbArc
 50
139.99999915649
 51
179.999993632699
  0
ARC
  5
39B
330
A6
100
AcDbEntity
  8
0
  6
Continuous
 62
     7
100
AcDbCircle
 10
117.0999999406943
 20
191.8153566793583
 30
0.0
 40
0.1249999877631047
100
AcDbArc
 50
180.000005608987
 51
270.0000056089805
  0
ARC
  5
39C
330
A6
100
AcDbEntity
  8
0
  6
Continuous
 62
     7
100
AcDbCircle
 10
124.3499999651682
 20
191.8153566793583
 30
0.0
 40
0.1249999877630052
100
AcDbArc
 50
269.9999943910195
 51
359.999994391013
  0
ENDBLK
  5
A8
330
A6
100
AcDbEntity
  8
0
100
AcDbBlockEnd
  0
BLOCK
  5
AE
330
A9
100
AcDbEntity
  8
0
100
AcDbBlockBegin
  2
SlideAlu_L_34mm
 70
     0
 10
46.02499995293156
 20
190.2403569754922
 30
0.0
  3
SlideAlu_L_34mm
  1

  0
INSERT
  5
AA
330
A9
100
AcDbEntity
  8
0
100
AcDbBlockReference
  2
SAW22_Rev01_bauteil__ausgeklinkt_1__13
 10
135.3749999529314
 20
209.7590416677718
 30
0.0
  0
INSERT
  5
AB
330
A9
100
AcDbEntity
  8
0
100
AcDbBlockReference
  2
fenorm_aluminium_C0__14
 10
46.02499995293156
 20
195.4403557615859
 30
0.0
  0
INSERT
  5
AC
330
A9
100
AcDbEntity
  8
0
100
AcDbBlockReference
  2
SlideAlu_L_LI_Rev04__16
 10
108.0249999529313
 20
190.2403569754922
 30
0.0
  0
INSERT
  5
AD
330
A9
100
AcDbEntity
  8
0
100
AcDbBlockReference
  2
Dichtung01_1_1
 10
116.9749999529312
 20
191.6903566671213
 30
0.0
  0
ENDBLK
  5
AF
330
A9
100
AcDbEntity
  8
0
100
AcDbBlockEnd
  0
BLOCK
  5
B2
330
B0
100
AcDbEntity
  8
0
100
AcDbBlockBegin
  2
Std_SlideAlu_U34
 70
     0
 10
107.7000000003101
 20
205.6000019170801
 30
0.0
  3
Std_SlideAlu_U34
  1

  0
INSERT
  5
B1
330
B0
100
AcDbEntity
  8
0
100
AcDbBlockReference
  2
SlideAlu_L_34mm
 10
46.02499995293156
 20
190.2403569754922
 30
0.0
  0
MTEXT
  5
39D
330
B0
100
AcDbEntity
  8
1
 62
     7
100
AcDbMText
 10
78.10000000031006
 20
208.7403550571643
 30
0.0
 40
3.5
 41
0.0
 71
     2
 72
     1
  1
SlideAlu U34
  7
CONVERTER_11
 73
     1
 44
1.32052821128451
  0
DIMENSION
  5
3A9
330
B0
100
AcDbEntity
  8
1
100
AcDbDimension
  2
*D42
 10
108.0249999529313
 20
187.019987684209
 30
0.0
 11
101.1249999529313
 21
189.269987684209
 31
0.0
 70
    32
  1
<>
 71
     5
 42
-1.0
 53
0.00013888888889
  3
ME10_DIM_22
100
AcDbAlignedDimension
 13
168.0249999529313
 23
190.2403569754922
 33
0.0
 14
108.0249999529313
 24
190.2403569754922
 34
0.0
100
AcDbRotatedDimension
  0
DIMENSION
  5
3B4
330
B0
100
AcDbEntity
  8
1
100
AcDbDimension
  2
*D43
 10
179.9835344631681
 20
220.9590416677718
 30
0.0
 11
177.7335344631681
 21
205.599699321632
 31
0.0
 70
    32
  1
31
 71
     5
 42
-1.0
 53
90.0
  3
ME10_DIM_23
100
AcDbAlignedDimension
 13
168.0249999529313
 23
190.2403569754922
 33
0.0
 14
169.1749999529314
 24
220.9590416677718
 34
0.0
 50
90.0
100
AcDbRotatedDimension
  0
DIMENSION
  5
3BF
330
B0
100
AcDbEntity
  8
1
100
AcDbDimension
  2
*D44
 10
166.0249999529423
 20
213.3560504838381
 30
0.0
 11
150.6999999529384
 21
215.6060504838117
 31
0.0
 70
    33
  1
30.5
 71
     5
 42
-1.0
 53
0.00013888888889
  3
ME10_DIM_24
100
AcDbAlignedDimension
 13
135.3749999529314
 23
219.7590416677718
 33
0.0
 14
166.0249999529313
 24
219.7590416678245
 34
0.0
  0
DIMENSION
  5
3CA
330
B0
100
AcDbEntity
  8
1
100
AcDbDimension
  2
*D45
 10
135.3749999529313
 20
225.451106641096
 30
0.0
 11
152.3749999529314
 21
227.701106641096
 31
0.0
 70
    32
  1
<>
 71
     5
 42
-1.0
 53
0.00013888888889
  3
ME10_DIM_25
100
AcDbAlignedDimension
 13
169.3749999529314
 23
220.7590416677718
 33
0.0
 14
135.3749999529314
 24
220.9590416677718
 34
0.0
100
AcDbRotatedDimension
  0
ENDBLK
  5
B3
330
B0
100
AcDbEntity
  8
0
100
AcDbBlockEnd
  0
BLOCK
  5
B5
330
B4
100
AcDbEntity
  8
0
100
AcDbBlockBegin
  2
A4_Hoch__17
 70
     0
 10
0.0
 20
0.0
 30
0.0
  3
A4_Hoch__17
  1

  0
LINE
  5
3CB
330
B4
100
AcDbEntity
  8
9_schriftkopf
  6
Continuous
 62
     2
100
AcDbLine
 10
13.20000000507801
 20
10.24999988108208
 30
0.0
 11
67.800000005078
 21
10.24999988108208
 31
0.0
  0
LINE
  5
3CC
330
B4
100
AcDbEntity
  8
9_schriftkopf
  6
Continuous
 62
     7
100
AcDbLine
 10
10.2000000050777
 20
288.399999881082
 30
0.0
 11
200.400000005078
 21
288.399999881082
 31
0.0
  0
LINE
  5
3CD
330
B4
100
AcDbEntity
  8
9_schriftkopf
  6
Continuous
 62
     7
100
AcDbLine
 10
153.600000005078
 20
5.99999988108208
 30
0.0
 11
153.600000005078
 21
2.99999988108208
 31
0.0
  0
LINE
  5
3CE
330
B4
100
AcDbEntity
  8
9_schriftkopf
  6
Continuous
 62
     7
100
AcDbLine
 10
106.800000005078
 20
5.99999988108208
 30
0.0
 11
106.800000005078
 21
2.99999988108208
 31
0.0
  0
LINE
  5
3CF
330
B4
100
AcDbEntity
  8
9_schriftkopf
  6
Continuous
 62
     7
100
AcDbLine
 10
60.0000000050778
 20
5.99999988108209
 30
0.0
 11
60.0000000050778
 21
2.99999988108209
 31
0.0
  0
LINE
  5
3D0
330
B4
100
AcDbEntity
  8
9_schriftkopf
  6
Continuous
 62
     7
100
AcDbLine
 10
13.2000000050777
 20
238.774996881083
 30
0.0
 11
10.2000000050777
 21
238.774996881083
 31
0.0
  0
LINE
  5
3D1
330
B4
100
AcDbEntity
  8
9_schriftkopf
  6
Continuous
 62
     7
100
AcDbLine
 10
13.2000000050777
 20
192.208330881083
 30
0.0
 11
10.2000000050777
 21
192.208330881083
 31
0.0
  0
LINE
  5
3D2
330
B4
100
AcDbEntity
  8
9_schriftkopf
  6
Continuous
 62
     7
100
AcDbLine
 10
13.2000000050777
 20
145.641664881082
 30
0.0
 11
10.2000000050777
 21
145.641664881082
 31
0.0
  0
LINE
  5
3D3
330
B4
100
AcDbEntity
  8
9_schriftkopf
  6
Continuous
 62
     7
100
AcDbLine
 10
13.2000000050777
 20
99.0749988810825
 30
0.0
 11
10.2000000050777
 21
99.0749988810825
 31
0.0
  0
LINE
  5
3D4
330
B4
100
AcDbEntity
  8
9_schriftkopf
  6
Continuous
 62
     7
100
AcDbLine
 10
13.2000000050777
 20
52.5083328810819
 30
0.0
 11
10.2000000050777
 21
52.5083328810819
 31
0.0
  0
LINE
  5
3D5
330
B4
100
AcDbEntity
  8
9_schriftkopf
  6
Continuous
 62
     7
100
AcDbLine
 10
13.2000000050777
 20
5.99999988108209
 30
0.0
 11
13.2000000050777
 21
288.399999881082
 31
0.0
  0
LINE
  5
3D6
330
B4
100
AcDbEntity
  8
9_schriftkopf
  6
Continuous
 62
     7
100
AcDbLine
 10
10.2000000050777
 20
2.99999988108209
 30
0.0
 11
10.2000000050777
 21
288.399999881082
 31
0.0
  0
LINE
  5
3D7
330
B4
100
AcDbEntity
  8
9_schriftkopf
  6
Continuous
 62
     7
100
AcDbLine
 10
200.400000005078
 20
5.99999988108208
 30
0.0
 11
13.2000000050777
 21
5.99999988108209
 31
0.0
  0
LINE
  5
3D8
330
B4
100
AcDbEntity
  8
9_schriftkopf
  6
Continuous
 62
     7
100
AcDbLine
 10
200.400000005078
 20
2.99999988108208
 30
0.0
 11
10.2000000050777
 21
2.99999988108209
 31
0.0
  0
LINE
  5
3D9
330
B4
100
AcDbEntity
  8
9_schriftkopf
  6
Continuous
 62
     7
100
AcDbLine
 10
200.400000005078
 20
288.399999881082
 30
0.0
 11
200.400000005078
 21
2.99999988108208
 31
0.0
  0
LINE
  5
3DA
330
B4
100
AcDbEntity
  8
9_schriftkopf
  6
Continuous
 62
     2
100
AcDbLine
 10
78.200000005078
 20
27.24999988108208
 30
0.0
 11
93.800000005078
 21
27.24999988108208
 31
0.0
  0
LINE
  5
3DB
330
B4
100
AcDbEntity
  8
9_schriftkopf
  6
Continuous
 62
     2
100
AcDbLine
 10
93.800000005078
 20
27.24999988108208
 30
0.0
 11
112.0000000050781
 21
27.24999988108208
 31
0.0
  0
LINE
  5
3DC
330
B4
100
AcDbEntity
  8
9_schriftkopf
  6
Continuous
 62
     2
100
AcDbLine
 10
78.200000005078
 20
44.24999988108208
 30
0.0
 11
78.200000005078
 21
27.24999988108208
 31
0.0
  0
LINE
  5
3DD
330
B4
100
AcDbEntity
  8
9_schriftkopf
  6
Continuous
 62
     2
100
AcDbLine
 10
93.800000005078
 20
61.24999988108208
 30
0.0
 11
93.800000005078
 21
27.24999988108208
 31
0.0
  0
LINE
  5
3DE
330
B4
100
AcDbEntity
  8
9_schriftkopf
  6
Continuous
 62
     2
100
AcDbLine
 10
13.20000000507801
 20
27.24999988108208
 30
0.0
 11
78.200000005078
 21
27.24999988108208
 31
0.0
  0
LINE
  5
3DF
330
B4
100
AcDbEntity
  8
1
  6
Continuous
 62
     7
100
AcDbLine
 10
13.20000000507801
 20
22.99999988108208
 30
0.0
 11
13.20000000507801
 21
61.24999988108208
 31
0.0
  0
LINE
  5
3E0
330
B4
100
AcDbEntity
  8
9_schriftkopf
  6
Continuous
 62
     2
100
AcDbLine
 10
67.800000005078
 20
22.99999988108208
 30
0.0
 11
67.800000005078
 21
5.99999988108208
 31
0.0
  0
LINE
  5
3E1
330
B4
100
AcDbEntity
  8
9_schriftkopf
  6
Continuous
 62
     2
100
AcDbLine
 10
67.800000005078
 20
22.99999988108208
 30
0.0
 11
67.800000005078
 21
5.99999988108208
 31
0.0
  0
LINE
  5
3E2
330
B4
100
AcDbEntity
  8
9_schriftkopf
  6
Continuous
 62
     2
100
AcDbLine
 10
67.800000005078
 20
22.99999988108208
 30
0.0
 11
67.800000005078
 21
5.99999988108208
 31
0.0
  0
LINE
  5
3E3
330
B4
100
AcDbEntity
  8
9_schriftkopf
  6
Continuous
 62
     2
100
AcDbLine
 10
67.800000005078
 20
22.99999988108208
 30
0.0
 11
67.800000005078
 21
5.99999988108208
 31
0.0
  0
LINE
  5
3E4
330
B4
100
AcDbEntity
  8
1
  6
Continuous
 62
     2
100
AcDbLine
 10
67.800000005078
 20
22.99999988108208
 30
0.0
 11
13.20000000507801
 21
22.99999988108208
 31
0.0
  0
LINE
  5
3E5
330
B4
100
AcDbEntity
  8
9_schriftkopf
  6
Continuous
 62
     2
100
AcDbLine
 10
112.0000000050781
 20
22.99999988108208
 30
0.0
 11
112.0000000050781
 21
5.99999988108208
 31
0.0
  0
LINE
  5
3E6
330
B4
100
AcDbEntity
  8
9_schriftkopf
  6
Continuous
 62
     2
100
AcDbLine
 10
112.0000000050781
 20
22.99999988108208
 30
0.0
 11
112.0000000050781
 21
5.99999988108208
 31
0.0
  0
LINE
  5
3E7
330
B4
100
AcDbEntity
  8
9_schriftkopf
  6
Continuous
 62
     2
100
AcDbLine
 10
112.0000000050781
 20
22.99999988108208
 30
0.0
 11
112.0000000050781
 21
5.99999988108208
 31
0.0
  0
LINE
  5
3E8
330
B4
100
AcDbEntity
  8
9_schriftkopf
  6
Continuous
 62
     2
100
AcDbLine
 10
112.0000000050781
 20
22.99999988108208
 30
0.0
 11
112.0000000050781
 21
5.99999988108208
 31
0.0
  0
LINE
  5
3E9
330
B4
100
AcDbEntity
  8
1
  6
Continuous
 62
     2
100
AcDbLine
 10
112.0000000050781
 20
22.99999988108208
 30
0.0
 11
200.400000005078
 21
22.99999988108208
 31
0.0
  0
LINE
  5
3EA
330
B4
100
AcDbEntity
  8
1
  6
Continuous
 62
     7
100
AcDbLine
 10
13.20000000507801
 20
61.24999988108208
 30
0.0
 11
200.400000005078
 21
61.24999988108208
 31
0.0
  0
LINE
  5
3EB
330
B4
100
AcDbEntity
  8
1
  6
Continuous
 62
     7
100
AcDbLine
 10
13.2000000050777
 20
5.99999988108209
 30
0.0
 11
13.20000000507801
 21
22.99999988108208
 31
0.0
  0
LINE
  5
3EC
330
B4
100
AcDbEntity
  8
9_schriftkopf
  6
Continuous
 62
     2
100
AcDbLine
 10
67.800000005078
 20
44.24999988108208
 30
0.0
 11
200.4000000050782
 21
44.24999988108208
 31
0.0
  0
LINE
  5
3ED
330
B4
100
AcDbEntity
  8
9_schriftkopf
  6
Continuous
 62
     2
100
AcDbLine
 10
67.800000005078
 20
44.24999988108208
 30
0.0
 11
67.800000005078
 21
22.99999988108208
 31
0.0
  0
LINE
  5
3EE
330
B4
100
AcDbEntity
  8
9_schriftkopf
  6
Continuous
 62
     2
100
AcDbLine
 10
13.20000000507801
 20
44.24999988108208
 30
0.0
 11
67.800000005078
 21
44.24999988108208
 31
0.0
  0
LINE
  5
3EF
330
B4
100
AcDbEntity
  8
9_schriftkopf
  6
Continuous
 62
     2
100
AcDbLine
 10
112.0000000050782
 20
54.87499988108208
 30
0.0
 11
200.4000000050782
 21
54.87499988108208
 31
0.0
  0
LINE
  5
3F0
330
B4
100
AcDbEntity
  8
9_schriftkopf
  6
Continuous
 62
     2
100
AcDbLine
 10
67.800000005078
 20
61.24999988108208
 30
0.0
 11
67.800000005078
 21
22.99999988108208
 31
0.0
  0
LINE
  5
3F1
330
B4
100
AcDbEntity
  8
9_schriftkopf
  6
Continuous
 62
     2
100
AcDbLine
 10
112.0000000050782
 20
61.24999988108208
 30
0.0
 11
112.0000000050781
 21
22.99999988108208
 31
0.0
  0
LINE
  5
3F2
330
B4
100
AcDbEntity
  8
9_schriftkopf
  6
Continuous
 62
     2
100
AcDbLine
 10
13.20000000507801
 20
39.99999988108208
 30
0.0
 11
112.0000000050781
 21
39.99999988108208
 31
0.0
  0
LINE
  5
3F3
330
B4
100
AcDbEntity
  8
9_schriftkopf
  6
Continuous
 62
     2
100
AcDbLine
 10
13.20000000507801
 20
35.74999988108208
 30
0.0
 11
112.0000000050781
 21
35.74999988108208
 31
0.0
  0
LINE
  5
3F4
330
B4
100
AcDbEntity
  8
9_schriftkopf
  6
Continuous
 62
     2
100
AcDbLine
 10
13.20000000507801
 20
31.49999988108208
 30
0.0
 11
112.0000000050781
 21
31.49999988108208
 31
0.0
  0
LINE
  5
3F5
330
B4
100
AcDbEntity
  8
9_schriftkopf
  6
Continuous
 62
     2
100
AcDbLine
 10
13.20000000507801
 20
14.49999988108208
 30
0.0
 11
67.800000005078
 21
14.49999988108208
 31
0.0
  0
LINE
  5
3F6
330
B4
100
AcDbEntity
  8
9_schriftkopf
  6
Continuous
 62
     2
100
AcDbLine
 10
13.20000000507801
 20
18.74999988108208
 30
0.0
 11
67.800000005078
 21
18.74999988108208
 31
0.0
  0
LINE
  5
3F7
330
B4
100
AcDbEntity
  8
9_schriftkopf
  6
Continuous
 62
     2
100
AcDbLine
 10
21.00000000507799
 20
44.24999988108208
 30
0.0
 11
21.00000000507799
 21
5.99999988108208
 31
0.0
  0
LINE
  5
3F8
330
B4
100
AcDbEntity
  8
9_schriftkopf
  6
Continuous
 62
     2
100
AcDbLine
 10
47.00000000507799
 20
44.24999988108208
 30
0.0
 11
47.00000000507799
 21
5.99999988108208
 31
0.0
  0
LINE
  5
3F9
330
B4
100
AcDbEntity
  8
9_schriftkopf
  6
Continuous
 62
     2
100
AcDbLine
 10
60.00000000507799
 20
44.24999988108208
 30
0.0
 11
60.0000000050778
 21
5.99999988108209
 31
0.0
  0
LINE
  5
3FA
330
B4
100
AcDbEntity
  8
9_schriftkopf
  6
Continuous
 62
     2
100
AcDbLine
 10
164.0000000050781
 20
61.24999988108198
 30
0.0
 11
164.0000000050781
 21
54.87499988108208
 31
0.0
  0
LINE
  5
3FB
330
B4
100
AcDbEntity
  8
9_schriftkopf
  6
Continuous
 62
     2
100
AcDbLine
 10
187.400000005078
 20
14.49999988108208
 30
0.0
 11
200.400000005078
 21
14.49999988108208
 31
0.0
  0
LINE
  5
3FC
330
B4
100
AcDbEntity
  8
9_schriftkopf
  6
Continuous
 62
     2
100
AcDbLine
 10
187.4000000050781
 20
22.99999988108208
 30
0.0
 11
187.4000000050781
 21
10.24999988108208
 31
0.0
  0
LINE
  5
3FD
330
B4
100
AcDbEntity
  8
9_schriftkopf
  6
Continuous
 62
     2
100
AcDbLine
 10
156.200000005078
 20
10.24999988108208
 30
0.0
 11
156.200000005078
 21
5.99999988108199
 31
0.0
  0
LINE
  5
3FE
330
B4
100
AcDbEntity
  8
9_schriftkopf
  6
Continuous
 62
     2
100
AcDbLine
 10
112.0000000050781
 20
10.24999988108208
 30
0.0
 11
200.400000005078
 21
10.24999988108208
 31
0.0
  0
LINE
  5
3FF
330
B4
100
AcDbEntity
  8
9_schriftkopf
  6
Continuous
 62
     2
100
AcDbLine
 10
13.20000000507801
 20
44.24999988108208
 30
0.0
 11
200.4000000050782
 21
44.24999988108208
 31
0.0
  0
LINE
  5
400
330
B4
100
AcDbEntity
  8
9_schriftkopf
  6
Continuous
 62
     2
100
AcDbLine
 10
112.0000000050782
 20
54.87499988108208
 30
0.0
 11
200.4000000050782
 21
54.87499988108208
 31
0.0
  0
LINE
  5
401
330
B4
100
AcDbEntity
  8
9_schriftkopf
  6
Continuous
 62
     2
100
AcDbLine
 10
67.800000005078
 20
61.24999988108208
 30
0.0
 11
67.800000005078
 21
22.99999988108208
 31
0.0
  0
LINE
  5
402
330
B4
100
AcDbEntity
  8
9_schriftkopf
  6
Continuous
 62
     2
100
AcDbLine
 10
112.0000000050782
 20
61.24999988108208
 30
0.0
 11
112.0000000050781
 21
22.99999988108208
 31
0.0
  0
LINE
  5
403
330
B4
100
AcDbEntity
  8
9_schriftkopf
  6
Continuous
 62
     2
100
AcDbLine
 10
13.20000000507801
 20
39.99999988108208
 30
0.0
 11
112.0000000050781
 21
39.99999988108208
 31
0.0
  0
LINE
  5
404
330
B4
100
AcDbEntity
  8
9_schriftkopf
  6
Continuous
 62
     2
100
AcDbLine
 10
13.20000000507801
 20
35.74999988108208
 30
0.0
 11
112.0000000050781
 21
35.74999988108208
 31
0.0
  0
LINE
  5
405
330
B4
100
AcDbEntity
  8
9_schriftkopf
  6
Continuous
 62
     2
100
AcDbLine
 10
13.20000000507801
 20
31.49999988108208
 30
0.0
 11
112.0000000050781
 21
31.49999988108208
 31
0.0
  0
LINE
  5
406
330
B4
100
AcDbEntity
  8
9_schriftkopf
  6
Continuous
 62
     2
100
AcDbLine
 10
13.20000000507801
 20
27.24999988108208
 30
0.0
 11
112.0000000050781
 21
27.24999988108208
 31
0.0
  0
LINE
  5
407
330
B4
100
AcDbEntity
  8
9_schriftkopf
  6
Continuous
 62
     2
100
AcDbLine
 10
13.20000000507801
 20
14.49999988108208
 30
0.0
 11
67.800000005078
 21
14.49999988108208
 31
0.0
  0
LINE
  5
408
330
B4
100
AcDbEntity
  8
9_schriftkopf
  6
Continuous
 62
     2
100
AcDbLine
 10
13.20000000507801
 20
18.74999988108208
 30
0.0
 11
67.800000005078
 21
18.74999988108208
 31
0.0
  0
LINE
  5
409
330
B4
100
AcDbEntity
  8
9_schriftkopf
  6
Continuous
 62
     2
100
AcDbLine
 10
21.00000000507799
 20
44.24999988108208
 30
0.0
 11
21.00000000507799
 21
5.99999988108208
 31
0.0
  0
LINE
  5
40A
330
B4
100
AcDbEntity
  8
9_schriftkopf
  6
Continuous
 62
     2
100
AcDbLine
 10
47.00000000507799
 20
44.24999988108208
 30
0.0
 11
47.00000000507799
 21
5.99999988108208
 31
0.0
  0
LINE
  5
40B
330
B4
100
AcDbEntity
  8
9_schriftkopf
  6
Continuous
 62
     2
100
AcDbLine
 10
60.00000000507799
 20
44.24999988108208
 30
0.0
 11
60.0000000050778
 21
5.99999988108209
 31
0.0
  0
LINE
  5
40C
330
B4
100
AcDbEntity
  8
9_schriftkopf
  6
Continuous
 62
     2
100
AcDbLine
 10
164.0000000050781
 20
61.24999988108198
 30
0.0
 11
164.0000000050781
 21
54.87499988108208
 31
0.0
  0
LINE
  5
40D
330
B4
100
AcDbEntity
  8
9_schriftkopf
  6
Continuous
 62
     2
100
AcDbLine
 10
187.400000005078
 20
14.49999988108208
 30
0.0
 11
200.400000005078
 21
14.49999988108208
 31
0.0
  0
LINE
  5
40E
330
B4
100
AcDbEntity
  8
9_schriftkopf
  6
Continuous
 62
     2
100
AcDbLine
 10
187.4000000050781
 20
22.99999988108208
 30
0.0
 11
187.4000000050781
 21
10.24999988108208
 31
0.0
  0
LINE
  5
40F
330
B4
100
AcDbEntity
  8
9_schriftkopf
  6
Continuous
 62
     2
100
AcDbLine
 10
156.200000005078
 20
10.24999988108208
 30
0.0
 11
156.200000005078
 21
5.99999988108199
 31
0.0
  0
LINE
  5
410
330
B4
100
AcDbEntity
  8
9_schriftkopf
  6
Continuous
 62
     2
100
AcDbLine
 10
112.0000000050781
 20
10.24999988108208
 30
0.0
 11
200.400000005078
 21
10.24999988108208
 31
0.0
  0
LINE
  5
411
330
B4
100
AcDbEntity
  8
9_schriftkopf
  6
Continuous
 62
     2
100
AcDbLine
 10
13.20000000507801
 20
44.24999988108208
 30
0.0
 11
200.4000000050782
 21
44.24999988108208
 31
0.0
  0
LINE
  5
412
330
B4
100
AcDbEntity
  8
9_schriftkopf
  6
Continuous
 62
     2
100
AcDbLine
 10
112.0000000050782
 20
54.87499988108208
 30
0.0
 11
200.4000000050782
 21
54.87499988108208
 31
0.0
  0
LINE
  5
413
330
B4
100
AcDbEntity
  8
9_schriftkopf
  6
Continuous
 62
     2
100
AcDbLine
 10
67.800000005078
 20
61.24999988108208
 30
0.0
 11
67.800000005078
 21
22.99999988108208
 31
0.0
  0
LINE
  5
414
330
B4
100
AcDbEntity
  8
9_schriftkopf
  6
Continuous
 62
     2
100
AcDbLine
 10
112.0000000050782
 20
61.24999988108208
 30
0.0
 11
112.0000000050781
 21
22.99999988108208
 31
0.0
  0
LINE
  5
415
330
B4
100
AcDbEntity
  8
9_schriftkopf
  6
Continuous
 62
     2
100
AcDbLine
 10
13.20000000507801
 20
39.99999988108208
 30
0.0
 11
112.0000000050781
 21
39.99999988108208
 31
0.0
  0
LINE
  5
416
330
B4
100
AcDbEntity
  8
9_schriftkopf
  6
Continuous
 62
     2
100
AcDbLine
 10
13.20000000507801
 20
35.74999988108208
 30
0.0
 11
112.0000000050781
 21
35.74999988108208
 31
0.0
  0
LINE
  5
417
330
B4
100
AcDbEntity
  8
9_schriftkopf
  6
Continuous
 62
     2
100
AcDbLine
 10
13.20000000507801
 20
31.49999988108208
 30
0.0
 11
112.0000000050781
 21
31.49999988108208
 31
0.0
  0
LINE
  5
418
330
B4
100
AcDbEntity
  8
9_schriftkopf
  6
Continuous
 62
     2
100
AcDbLine
 10
13.20000000507801
 20
27.24999988108208
 30
0.0
 11
112.0000000050781
 21
27.24999988108208
 31
0.0
  0
LINE
  5
419
330
B4
100
AcDbEntity
  8
9_schriftkopf
  6
Continuous
 62
     2
100
AcDbLine
 10
13.20000000507801
 20
14.49999988108208
 30
0.0
 11
67.800000005078
 21
14.49999988108208
 31
0.0
  0
LINE
  5
41A
330
B4
100
AcDbEntity
  8
9_schriftkopf
  6
Continuous
 62
     2
100
AcDbLine
 10
13.20000000507801
 20
18.74999988108208
 30
0.0
 11
67.800000005078
 21
18.74999988108208
 31
0.0
  0
LINE
  5
41B
330
B4
100
AcDbEntity
  8
9_schriftkopf
  6
Continuous
 62
     2
100
AcDbLine
 10
21.00000000507799
 20
44.24999988108208
 30
0.0
 11
21.00000000507799
 21
5.99999988108208
 31
0.0
  0
LINE
  5
41C
330
B4
100
AcDbEntity
  8
9_schriftkopf
  6
Continuous
 62
     2
100
AcDbLine
 10
47.00000000507799
 20
44.24999988108208
 30
0.0
 11
47.00000000507799
 21
5.99999988108208
 31
0.0
  0
LINE
  5
41D
330
B4
100
AcDbEntity
  8
9_schriftkopf
  6
Continuous
 62
     2
100
AcDbLine
 10
60.00000000507799
 20
44.24999988108208
 30
0.0
 11
60.0000000050778
 21
5.99999988108209
 31
0.0
  0
LINE
  5
41E
330
B4
100
AcDbEntity
  8
9_schriftkopf
  6
Continuous
 62
     2
100
AcDbLine
 10
164.0000000050781
 20
61.24999988108198
 30
0.0
 11
164.0000000050781
 21
54.87499988108208
 31
0.0
  0
LINE
  5
41F
330
B4
100
AcDbEntity
  8
9_schriftkopf
  6
Continuous
 62
     2
100
AcDbLine
 10
187.400000005078
 20
14.49999988108208
 30
0.0
 11
200.400000005078
 21
14.49999988108208
 31
0.0
  0
LINE
  5
420
330
B4
100
AcDbEntity
  8
9_schriftkopf
  6
Continuous
 62
     2
100
AcDbLine
 10
187.4000000050781
 20
22.99999988108208
 30
0.0
 11
187.4000000050781
 21
10.24999988108208
 31
0.0
  0
LINE
  5
421
330
B4
100
AcDbEntity
  8
9_schriftkopf
  6
Continuous
 62
     2
100
AcDbLine
 10
156.200000005078
 20
10.24999988108208
 30
0.0
 11
156.200000005078
 21
5.99999988108199
 31
0.0
  0
LINE
  5
422
330
B4
100
AcDbEntity
  8
9_schriftkopf
  6
Continuous
 62
     2
100
AcDbLine
 10
112.0000000050781
 20
10.24999988108208
 30
0.0
 11
200.400000005078
 21
10.24999988108208
 31
0.0
  0
LINE
  5
423
330
B4
100
AcDbEntity
  8
9_schriftkopf
  6
Continuous
 62
     2
100
AcDbLine
 10
13.20000000507801
 20
44.24999988108208
 30
0.0
 11
200.4000000050782
 21
44.24999988108208
 31
0.0
  0
LINE
  5
424
330
B4
100
AcDbEntity
  8
9_schriftkopf
  6
Continuous
 62
     2
100
AcDbLine
 10
112.0000000050782
 20
54.87499988108208
 30
0.0
 11
200.4000000050782
 21
54.87499988108208
 31
0.0
  0
LINE
  5
425
330
B4
100
AcDbEntity
  8
9_schriftkopf
  6
Continuous
 62
     2
100
AcDbLine
 10
67.800000005078
 20
61.24999988108208
 30
0.0
 11
67.800000005078
 21
44.24999988108208
 31
0.0
  0
LINE
  5
426
330
B4
100
AcDbEntity
  8
9_schriftkopf
  6
Continuous
 62
     2
100
AcDbLine
 10
112.0000000050782
 20
61.24999988108208
 30
0.0
 11
112.0000000050781
 21
22.99999988108208
 31
0.0
  0
LINE
  5
427
330
B4
100
AcDbEntity
  8
9_schriftkopf
  6
Continuous
 62
     2
100
AcDbLine
 10
13.20000000507801
 20
39.99999988108208
 30
0.0
 11
112.0000000050781
 21
39.99999988108208
 31
0.0
  0
LINE
  5
428
330
B4
100
AcDbEntity
  8
9_schriftkopf
  6
Continuous
 62
     2
100
AcDbLine
 10
13.20000000507801
 20
35.74999988108208
 30
0.0
 11
112.0000000050781
 21
35.74999988108208
 31
0.0
  0
LINE
  5
429
330
B4
100
AcDbEntity
  8
9_schriftkopf
  6
Continuous
 62
     2
100
AcDbLine
 10
13.20000000507801
 20
31.49999988108208
 30
0.0
 11
112.0000000050781
 21
31.49999988108208
 31
0.0
  0
LINE
  5
42A
330
B4
100
AcDbEntity
  8
9_schriftkopf
  6
Continuous
 62
     2
100
AcDbLine
 10
13.20000000507801
 20
27.24999988108208
 30
0.0
 11
112.0000000050781
 21
27.24999988108208
 31
0.0
  0
LINE
  5
42B
330
B4
100
AcDbEntity
  8
9_schriftkopf
  6
Continuous
 62
     2
100
AcDbLine
 10
13.20000000507801
 20
14.49999988108208
 30
0.0
 11
67.800000005078
 21
14.49999988108208
 31
0.0
  0
LINE
  5
42C
330
B4
100
AcDbEntity
  8
9_schriftkopf
  6
Continuous
 62
     2
100
AcDbLine
 10
13.20000000507801
 20
18.74999988108208
 30
0.0
 11
67.800000005078
 21
18.74999988108208
 31
0.0
  0
LINE
  5
42D
330
B4
100
AcDbEntity
  8
9_schriftkopf
  6
Continuous
 62
     2
100
AcDbLine
 10
21.00000000507799
 20
44.24999988108208
 30
0.0
 11
21.00000000507799
 21
5.99999988108208
 31
0.0
  0
LINE
  5
42E
330
B4
100
AcDbEntity
  8
9_schriftkopf
  6
Continuous
 62
     2
100
AcDbLine
 10
47.00000000507799
 20
44.24999988108208
 30
0.0
 11
47.00000000507799
 21
5.99999988108208
 31
0.0
  0
LINE
  5
42F
330
B4
100
AcDbEntity
  8
9_schriftkopf
  6
Continuous
 62
     2
100
AcDbLine
 10
60.00000000507799
 20
44.24999988108208
 30
0.0
 11
60.0000000050778
 21
5.99999988108209
 31
0.0
  0
LINE
  5
430
330
B4
100
AcDbEntity
  8
9_schriftkopf
  6
Continuous
 62
     2
100
AcDbLine
 10
164.0000000050781
 20
61.24999988108198
 30
0.0
 11
164.0000000050781
 21
54.87499988108208
 31
0.0
  0
LINE
  5
431
330
B4
100
AcDbEntity
  8
9_schriftkopf
  6
Continuous
 62
     2
100
AcDbLine
 10
187.400000005078
 20
14.49999988108208
 30
0.0
 11
200.400000005078
 21
14.49999988108208
 31
0.0
  0
LINE
  5
432
330
B4
100
AcDbEntity
  8
9_schriftkopf
  6
Continuous
 62
     2
100
AcDbLine
 10
187.4000000050781
 20
22.99999988108208
 30
0.0
 11
187.4000000050781
 21
10.24999988108208
 31
0.0
  0
LINE
  5
433
330
B4
100
AcDbEntity
  8
9_schriftkopf
  6
Continuous
 62
     2
100
AcDbLine
 10
156.200000005078
 20
10.24999988108208
 30
0.0
 11
156.200000005078
 21
5.99999988108199
 31
0.0
  0
LINE
  5
434
330
B4
100
AcDbEntity
  8
9_schriftkopf
  6
Continuous
 62
     2
100
AcDbLine
 10
112.0000000050781
 20
10.24999988108208
 30
0.0
 11
200.400000005078
 21
10.24999988108208
 31
0.0
  0
IMAGE
  5
437
330
B4
100
AcDbEntity
  8
0
 92
      140
310
8C0000000100000084000000060000000500000042041B2EC9D25140B462C0F212561D400000000000000000667A889D00FC5A40B462C0F212561D400000000000000000667A889D00FC5A40ED9C682F7B223A40000000000000000042041B2EC9D25140ED9C682F7B223A40000000000000000042041B2EC9D25140B462C0
310
F212561D400000000000000000
100
AcDbRasterImage
 90
        0
 10
71.29352905882209
 20
7.3340566568301
 30
0.0
 11
0.02553589442508711
 21
0.0
 31
0.0
 12
0.0
 22
0.02554434171195652
 32
0.0
 13
1435.0
 23
736.0
340
436
 70
     3
280
     0
281
    50
282
    50
283
     0
360
438
 71
     1
 91
        2
 14
-0.5
 24
-0.5
 14
1434.5
 24
735.5
  0
MTEXT
  5
43A
330
B4
100
AcDbEntity
  8
1
 62
     2
100
AcDbMText
 10
63.8953297672645
 20
12.3279328949051
 30
0.0
 40
2.5
 41
0.0
 71
     5
 72
     1
  1
GK
  7
CONVERTER_12
 73
     1
 44
1.32052821128451
  0
MTEXT
  5
43C
330
B4
100
AcDbEntity
  8
1
 62
     2
100
AcDbMText
 10
53.50338637394
 20
12.2467458371448
 30
0.0
 40
2.5
 41
0.0
 71
     5
 72
     1
  1
17.2.2014
  7
CONVERTER_13
 73
     1
 44
1.32052821128451
  0
MTEXT
  5
43E
330
B4
100
AcDbEntity
  8
1
 62
     2
100
AcDbMText
 10
34.4501831071344
 20
12.5150552414672
 30
0.0
 40
2.5
 41
0.0
 71
     5
 72
     1
  1
Breite 40 hinzugef.
  7
CONVERTER_14
 73
     1
 44
1.32052821128451
  0
MTEXT
  5
43F
330
B4
100
AcDbEntity
  8
1
 62
     2
100
AcDbMText
 10
17.288421743111
 20
12.5651278676235
 30
0.0
 40
2.5
 41
0.0
 71
     5
 72
     1
  1
1
  7
CONVERTER_13
 73
     1
 44
1.32052821128451
  0
TEXT
  5
441
330
B4
100
AcDbEntity
  8
9_schriftkopf
 62
     2
100
AcDbText
 10
11.4500000050777
 20
214.712495381083
 30
0.0
 40
1.5
  1
2
 41
1.0
  7
CONVERTER_15
100
AcDbText
  0
TEXT
  5
442
330
B4
100
AcDbEntity
  8
9_schriftkopf
 62
     2
100
AcDbText
 10
177.225000005078
 20
3.74999988108208
 30
0.0
 40
1.5
  1
D
 41
1.0
  7
CONVERTER_15
100
AcDbText
  0
TEXT
  5
443
330
B4
100
AcDbEntity
  8
9_schriftkopf
 62
     2
100
AcDbText
 10
130.425000005078
 20
3.74999988108208
 30
0.0
 40
1.5
  1
C
 41
1.0
  7
CONVERTER_15
100
AcDbText
  0
TEXT
  5
444
330
B4
100
AcDbEntity
  8
9_schriftkopf
 62
     2
100
AcDbText
 10
83.1750000050778
 20
3.74999988108209
 30
0.0
 40
1.5
  1
B
 41
1.0
  7
CONVERTER_15
100
AcDbText
  0
TEXT
  5
445
330
B4
100
AcDbEntity
  8
9_schriftkopf
 62
     2
100
AcDbText
 10
36.3750000050777
 20
3.74999988108209
 30
0.0
 40
1.5
  1
A
 41
1.0
  7
CONVERTER_15
100
AcDbText
  0
TEXT
  5
446
330
B4
100
AcDbEntity
  8
9_schriftkopf
 62
     2
100
AcDbText
 10
11.4500000050777
 20
28.4458313810823
 30
0.0
 40
1.5
  1
6
 41
1.0
  7
CONVERTER_15
100
AcDbText
  0
TEXT
  5
447
330
B4
100
AcDbEntity
  8
9_schriftkopf
 62
     2
100
AcDbText
 10
11.4500000050777
 20
75.0124973810829
 30
0.0
 40
1.5
  1
5
 41
1.0
  7
CONVERTER_15
100
AcDbText
  0
TEXT
  5
448
330
B4
100
AcDbEntity
  8
9_schriftkopf
 62
     2
100
AcDbText
 10
11.4500000050777
 20
121.579163381083
 30
0.0
 40
1.5
  1
4
 41
1.0
  7
CONVERTER_15
100
AcDbText
  0
TEXT
  5
449
330
B4
100
AcDbEntity
  8
9_schriftkopf
 62
     2
100
AcDbText
 10
11.4500000050777
 20
168.145829381083
 30
0.0
 40
1.5
  1
3
 41
1.0
  7
CONVERTER_15
100
AcDbText
  0
TEXT
  5
44A
330
B4
100
AcDbEntity
  8
9_schriftkopf
 62
     2
100
AcDbText
 10
11.7000000050777
 20
261.337498381082
 30
0.0
 40
1.5
  1
1
 41
1.0
  7
CONVERTER_15
100
AcDbText
  0
MTEXT
  5
44B
330
B4
100
AcDbEntity
  8
9_schriftkopf
 62
     2
100
AcDbMText
 10
102.9000000050781
 20
29.37499988108208
 30
0.0
 40
2.5
 41
0.0
 71
     5
 72
     1
  1
-
  7
CONVERTER_13
 73
     1
 44
1.32052821128451
  0
MTEXT
  5
44C
330
B4
100
AcDbEntity
  8
9_schriftkopf
 62
     2
100
AcDbMText
 10
86.000000005078
 20
29.37499988108208
 30
0.0
 40
2.5
 41
0.0
 71
     5
 72
     1
  1
-
  7
CONVERTER_13
 73
     1
 44
1.32052821128451
  0
MTEXT
  5
44D
330
B4
100
AcDbEntity
  8
9_schriftkopf
 62
     2
100
AcDbMText
 10
182.479964419057
 20
8.25175568028611
 30
0.0
 40
2.5
 41
0.0
 71
     4
 72
     1
  1
-
  7
CONVERTER_13
 73
     1
 44
1.32052821128451
  0
MTEXT
  5
44E
330
B4
100
AcDbEntity
  8
9_schriftkopf
 62
     2
100
AcDbMText
 10
113.1262599075697
 20
56.81249988108208
 30
0.0
 40
2.5
 41
0.0
 71
     7
 72
     1
  1
Ma\U+00dfstab:
  7
CONVERTER_13
 73
     1
 44
1.32052821128451
  0
MTEXT
  5
44F
330
B4
100
AcDbEntity
  8
9_schriftkopf
 62
     2
100
AcDbMText
 10
63.900000005078
 20
8.12499988108208
 30
0.0
 40
2.5
 41
0.0
 71
     5
 72
     1
  1
Name
  7
CONVERTER_12
 73
     1
 44
1.32052821128451
  0
MTEXT
  5
450
330
B4
100
AcDbEntity
  8
9_schriftkopf
 62
     2
100
AcDbMText
 10
34.00000000507799
 20
8.42499988108208
 30
0.0
 40
2.5
 41
0.0
 71
     5
 72
     1
  1
\U+00c4nderung
  7
CONVERTER_13
 73
     1
 44
1.32052821128451
  0
MTEXT
  5
451
330
B4
100
AcDbEntity
  8
9_schriftkopf
 62
     2
100
AcDbMText
 10
53.50000000507799
 20
8.12499988108208
 30
0.0
 40
2.5
 41
0.0
 71
     5
 72
     1
  1
Datum
  7
CONVERTER_13
 73
     1
 44
1.32052821128451
  0
TEXT
  5
452
330
B4
100
AcDbEntity
  8
9_schriftkopf
 62
     2
100
AcDbText
 10
68.79893356896198
 20
32.37499988108208
 30
0.0
 40
2.5
  1
Gepr.
 41
0.72
  7
CONVERTER_13
100
AcDbText
  0
TEXT
  5
453
330
B4
100
AcDbEntity
  8
9_schriftkopf
 62
     2
100
AcDbText
 10
68.79893356896198
 20
28.12499988108208
 30
0.0
 40
2.5
  1
Norm
 41
0.72
  7
CONVERTER_13
100
AcDbText
  0
TEXT
  5
454
330
B4
100
AcDbEntity
  8
9_schriftkopf
 62
     2
100
AcDbText
 10
68.79893356896198
 20
36.62499988108208
 30
0.0
 40
2.5
  1
Bearb.
 41
0.72
  7
CONVERTER_13
100
AcDbText
  0
MTEXT
  5
455
330
B4
100
AcDbEntity
  8
9_schriftkopf
 62
     2
100
AcDbMText
 10
157.8767000490708
 20
8.12499988108208
 30
0.0
 40
2.5
 41
0.0
 71
     4
 72
     1
  1
Ersatz durch:
  7
CONVERTER_13
 73
     1
 44
1.32052821128451
  0
MTEXT
  5
456
330
B4
100
AcDbEntity
  8
9_schriftkopf
 62
     2
100
AcDbMText
 10
113.6767000490708
 20
8.12499988108208
 30
0.0
 40
2.5
 41
0.0
 71
     4
 72
     1
  1
Ersatz f\U+00fcr:
  7
CONVERTER_13
 73
     1
 44
1.32052821128451
  0
TEXT
  5
457
330
B4
100
AcDbEntity
  8
9_schriftkopf
 62
     2
100
AcDbText
 10
69.40366596018501
 20
56.81249988108208
 30
0.0
 40
2.5
  1
(Zul. Abw.)
 41
0.72
  7
CONVERTER_13
100
AcDbText
  0
TEXT
  5
458
330
B4
100
AcDbEntity
  8
9_schriftkopf
 62
     2
100
AcDbText
 10
95.246098158234
 20
56.81249988108208
 30
0.0
 40
2.5
  1
(Oberfl.)
 41
0.72
  7
CONVERTER_13
100
AcDbText
  0
MTEXT
  5
459
330
B4
100
AcDbEntity
  8
9_schriftkopf
 62
     2
100
AcDbMText
 10
86.000000005078
 20
42.12499988108208
 30
0.0
 40
2.5
 41
0.0
 71
     5
 72
     1
  1
Datum
  7
CONVERTER_13
 73
     1
 44
1.32052821128451
  0
MTEXT
  5
45A
330
B4
100
AcDbEntity
  8
9_schriftkopf
 62
     2
100
AcDbMText
 10
102.9000000050781
 20
42.12499988108208
 30
0.0
 40
2.5
 41
0.0
 71
     5
 72
     1
  1
Name
  7
CONVERTER_13
 73
     1
 44
1.32052821128451
  0
TEXT
  5
45B
330
B4
100
AcDbEntity
  8
9_schriftkopf
 62
     2
100
AcDbText
 10
165.1262599075697
 20
56.81249988108208
 30
0.0
 40
2.5
  1
Gewicht:
 41
0.72
  7
CONVERTER_13
100
AcDbText
  0
MTEXT
  5
45D
330
B4
100
AcDbEntity
  8
9_schriftkopf
 62
     2
100
AcDbMText
 10
14.32625990757001
 20
56.81249988108208
 30
0.0
 40
2.5
 41
0.0
 71
     7
 72
     1
  1
Lottmann Fensterb\U+00e4nke GmbH
  7
CONVERTER_16
 73
     1
 44
1.32052821128451
  0
MTEXT
  5
45E
330
B4
100
AcDbEntity
  8
9_schriftkopf
 62
     2
100
AcDbMText
 10
14.32625990757001
 20
53.31249988108208
 30
0.0
 40
2.5
 41
0.0
 71
     7
 72
     1
  1
Eisenstra\U+00dfe 9
  7
CONVERTER_16
 73
     1
 44
1.32052821128451
  0
TEXT
  5
45F
330
B4
100
AcDbEntity
  8
9_schriftkopf
 62
     2
100
AcDbText
 10
14.32625990757001
 20
49.81249988108208
 30
0.0
 40
2.5
  1
4462 Reichraming
 41
0.81
  7
CONVERTER_16
100
AcDbText
  0
TEXT
  5
460
330
B4
100
AcDbEntity
  8
9_schriftkopf
 62
     2
100
AcDbText
 10
14.32625990757001
 20
46.31249988108208
 30
0.0
 40
2.5
  1
www.helopal.com
 41
0.81
  7
CONVERTER_16
100
AcDbText
  0
MTEXT
  5
462
330
B4
100
AcDbEntity
  8
9_schriftkopf
 62
     2
100
AcDbMText
 10
112.4383269546209
 20
54.47939325727808
 30
0.0
 40
1.75
 41
0.0
 71
     1
 72
     1
  3
Weitergabe sowie Vervielf\U+00e4ltigung dieser Dokumente, Verwertung und Mit-\Pteilung seines Inhalts sind verboten, soweit nicht ausdr\U+00fccklich gestattet. Zuwider-\Phandlungen verpflichten zu Schadenersatz. Alle Rechte f\U+00fcr den\PFall der P
  1
atent-, Gebrauchsmuster- oder Geschmacksmustereintragung vorbehalten.
  7
CONVERTER_17
 73
     1
 44
0.90036014405762
  0
MTEXT
  5
463
330
B4
100
AcDbEntity
  8
9_schriftkopf
 62
     2
100
AcDbMText
 10
17.10000000507799
 20
8.12499988108208
 30
0.0
 40
2.5
 41
0.0
 71
     5
 72
     1
  1
Zust
  7
CONVERTER_13
 73
     1
 44
1.32052821128451
  0
MTEXT
  5
464
330
B4
100
AcDbEntity
  8
0
 62
     2
100
AcDbMText
 10
193.900000005078
 20
12.37499988108208
 30
0.0
 40
2.0
 41
0.0
 71
     5
 72
     1
  1
3
  7
CONVERTER_15
 73
     1
 44
1.0
  0
MTEXT
  5
465
330
B4
100
AcDbEntity
  8
0
 62
     2
100
AcDbMText
 10
193.900000005078
 20
18.74999988108208
 30
0.0
 40
2.5
 41
0.0
 71
     5
 72
     1
  1
2
  7
CONVERTER_15
 73
     1
 44
1.0
  0
MTEXT
  5
466
330
B4
100
AcDbEntity
  8
9_schriftkopf
 62
     2
100
AcDbMText
 10
133.479964419057
 20
8.25175568028611
 30
0.0
 40
2.5
 41
0.0
 71
     4
 72
     1
  1
-
  7
CONVERTER_13
 73
     1
 44
1.32052821128451
  0
TEXT
  5
467
330
B4
100
AcDbEntity
  8
9_schriftkopf
 62
     2
100
AcDbText
 10
95.12500997591499
 20
47.21512710597858
 30
0.0
 40
2.5
  1
-
 41
0.72
  7
CONVERTER_13
100
AcDbText
  0
TEXT
  5
468
330
B4
100
AcDbEntity
  8
9_schriftkopf
 62
     2
100
AcDbText
 10
95.12500997591499
 20
51.34493286845288
 30
0.0
 40
2.5
  1
-
 41
0.72
  7
CONVERTER_13
100
AcDbText
  0
TEXT
  5
469
330
B4
100
AcDbEntity
  8
9_schriftkopf
 62
     2
100
AcDbText
 10
69.12500997591499
 20
51.34493286845288
 30
0.0
 40
2.5
  1
-
 41
0.72
  7
CONVERTER_13
100
AcDbText
  0
TEXT
  5
46A
330
B4
100
AcDbEntity
  8
9_schriftkopf
 62
     2
100
AcDbText
 10
180.1093543024593
 20
56.81249988108208
 30
0.0
 40
2.5
  1
-
 41
0.72
  7
CONVERTER_13
100
AcDbText
  0
TEXT
  5
46B
330
B4
100
AcDbEntity
  8
9_schriftkopf
 62
     2
100
AcDbText
 10
128.7916231918066
 20
56.81249988108208
 30
0.0
 40
2.5
  1
1:1
 41
0.72
  7
CONVERTER_13
100
AcDbText
  0
MTEXT
  5
46C
330
B4
100
AcDbEntity
  8
9_schriftkopf
 62
     2
100
AcDbMText
 10
86.000000005078
 20
33.62499988108208
 30
0.0
 40
2.5
 41
0.0
 71
     5
 72
     1
  1
-
  7
CONVERTER_13
 73
     1
 44
1.32052821128451
  0
MTEXT
  5
46D
330
B4
100
AcDbEntity
  8
9_schriftkopf
 62
     2
100
AcDbMText
 10
102.9000000050781
 20
33.62499988108208
 30
0.0
 40
2.5
 41
0.0
 71
     5
 72
     1
  1
-
  7
CONVERTER_13
 73
     1
 44
1.32052821128451
  0
MTEXT
  5
46E
330
B4
100
AcDbEntity
  8
9_schriftkopf
 62
     2
100
AcDbMText
 10
86.000000005078
 20
37.87499988108208
 30
0.0
 40
2.5
 41
0.0
 71
     5
 72
     1
  1
03.06.2013
  7
CONVERTER_13
 73
     1
 44
1.32052821128451
  0
MTEXT
  5
46F
330
B4
100
AcDbEntity
  8
9_schriftkopf
 62
     2
100
AcDbMText
 10
102.9000000050781
 20
37.87499988108208
 30
0.0
 40
2.5
 41
0.0
 71
     5
 72
     1
  1
GK
  7
CONVERTER_13
 73
     1
 44
1.32052821128451
  0
MTEXT
  5
471
330
B4
100
AcDbEntity
  8
9_schriftkopf
 62
     1
100
AcDbMText
 10
149.7000000050781
 20
16.62499988108208
 30
0.0
 40
5.0
 41
0.0
 71
     5
 72
     1
  1
SlideU_Uebersicht_rev01
  7
CONVERTER_18
 73
     1
 44
1.32052821128451
  0
MTEXT
  5
472
330
B4
100
AcDbEntity
  8
9_schriftkopf
 62
     1
100
AcDbMText
 10
115.0000000050781
 20
26.49999988108208
 30
0.0
 40
5.0
 41
0.0
 71
     7
 72
     1
  1
\U+00dcbersicht: Breite Aufsteckwinkel
  7
CONVERTER_14
 73
     1
 44
1.32052821128451
  0
TEXT
  5
473
330
B4
100
AcDbEntity
  8
9_schriftkopf
 62
     1
100
AcDbText
 10
115.0000000050781
 20
35.12499988108208
 30
0.0
 40
5.0
  1
SlideAlu U
 41
0.72
  7
CONVERTER_13
100
AcDbText
  0
ENDBLK
  5
B6
330
B4
100
AcDbEntity
  8
0
100
AcDbBlockEnd
  0
BLOCK
  5
132
330
12B
100
AcDbEntity
  8
0
100
AcDbBlockBegin
  2
*D30
 70
     1
 10
0.0
 20
0.0
 30
0.0
  3
*D30
  1

  0
LINE
  5
12C
330
12B
100
AcDbEntity
  8
1
  6
Continuous
 62
     2
100
AcDbLine
 10
179.049361158359
 20
134.6406651142138
 30
0.0
 11
179.049361158359
 21
165.3593349321102
 31
0.0
  0
LINE
  5
12D
330
12B
100
AcDbEntity
  8
1
  6
Continuous
 62
     2
100
AcDbLine
 10
168.6999995706864
 20
165.3593349321102
 30
0.0
 11
179.549361158359
 21
165.3593349321102
 31
0.0
  0
LINE
  5
12E
330
12B
100
AcDbEntity
  8
1
  6
Continuous
 62
     2
100
AcDbLine
 10
167.5499995706863
 20
134.6406651142138
 30
0.0
 11
179.549361158359
 21
134.6406651142138
 31
0.0
  0
SOLID
  5
12F
330
12B
100
AcDbEntity
  8
1
 62
     2
100
AcDbTrace
 10
178.7531430387874
 20
136.8906651142138
 30
0.0
 11
179.3455792779307
 21
136.8906651142138
 31
0.0
 12
179.049361158359
 22
134.6406651142138
 32
0.0
 13
179.049361158359
 23
134.6406651142138
 33
0.0
  0
SOLID
  5
130
330
12B
100
AcDbEntity
  8
1
 62
     2
100
AcDbTrace
 10
179.3455792779307
 20
163.1093349321102
 30
0.0
 11
178.7531430387874
 21
163.1093349321102
 31
0.0
 12
179.049361158359
 22
165.3593349321102
 32
0.0
 13
179.049361158359
 23
165.3593349321102
 33
0.0
  0
MTEXT
  5
131
330
12B
100
AcDbEntity
  8
1
 62
     2
100
AcDbMText
 10
178.049361158359
 20
148.500000023162
 30
0.0
 40
2.5
 41
0.0
 71
     7
 72
     1
  1
31
  7
CONVERTER_11
 11
0.0
 21
1.0
 31
0.0
 73
     1
 44
0.60024009603842
  0
ENDBLK
  5
133
330
12B
100
AcDbEntity
  8
0
100
AcDbBlockEnd
  0
BLOCK
  5
13D
330
136
100
AcDbEntity
  8
0
100
AcDbBlockBegin
  2
*D31
 70
     1
 10
0.0
 20
0.0
 30
0.0
  3
*D31
  1

  0
LINE
  5
137
330
136
100
AcDbEntity
  8
1
  6
Continuous
 62
     2
100
AcDbLine
 10
168.8999995706865
 20
169.629646503745
 30
0.0
 11
128.8999995706865
 21
169.629646503745
 31
0.0
  0
LINE
  5
138
330
136
100
AcDbEntity
  8
1
  6
Continuous
 62
     2
100
AcDbLine
 10
128.8999995706865
 20
165.3593349321102
 30
0.0
 11
128.8999995706865
 21
170.129646503745
 31
0.0
  0
LINE
  5
139
330
136
100
AcDbEntity
  8
1
  6
Continuous
 62
     2
100
AcDbLine
 10
168.8999995706865
 20
165.1593349712685
 30
0.0
 11
168.8999995706865
 21
170.129646503745
 31
0.0
  0
SOLID
  5
13A
330
136
100
AcDbEntity
  8
1
 62
     2
100
AcDbTrace
 10
166.6499995706865
 20
169.3334283841733
 30
0.0
 11
166.6499995706865
 21
169.9258646233166
 31
0.0
 12
168.8999995706865
 22
169.629646503745
 32
0.0
 13
168.8999995706865
 23
169.629646503745
 33
0.0
  0
SOLID
  5
13B
330
136
100
AcDbEntity
  8
1
 62
     2
100
AcDbTrace
 10
131.1499995706865
 20
169.9258646233166
 30
0.0
 11
131.1499995706865
 21
169.3334283841733
 31
0.0
 12
128.8999995706865
 22
169.629646503745
 32
0.0
 13
128.8999995706865
 23
169.629646503745
 33
0.0
  0
MTEXT
  5
13C
330
136
100
AcDbEntity
  8
1
 62
     2
100
AcDbMText
 10
147.0249995706865
 20
170.629646503745
 30
0.0
 40
2.5
 41
0.0
 71
     7
 72
     1
  1
40
  7
CONVERTER_11
 11
0.9999999999970619
 21
2.424068405545306E-6
 31
0.0
 73
     1
 44
0.60024009603842
  0
ENDBLK
  5
13E
330
136
100
AcDbEntity
  8
0
100
AcDbBlockEnd
  0
BLOCK
  5
148
330
141
100
AcDbEntity
  8
0
100
AcDbBlockBegin
  2
*D32
 70
     1
 10
0.0
 20
0.0
 30
0.0
  3
*D32
  1

  0
LINE
  5
142
330
141
100
AcDbEntity
  8
1
  6
Continuous
 62
     2
100
AcDbLine
 10
128.8999995706865
 20
157.139967871756
 30
0.0
 11
165.5499995706863
 21
157.139967871756
 31
0.0
  0
LINE
  5
143
330
141
100
AcDbEntity
  8
1
  6
Continuous
 62
     2
100
AcDbLine
 10
165.5499995706863
 20
154.158727862157
 30
0.0
 11
165.5499995706863
 21
157.639967871756
 31
0.0
  0
LINE
  5
144
330
141
100
AcDbEntity
  8
1
  6
Continuous
 62
     2
100
AcDbLine
 10
128.8999995706865
 20
164.158729820071
 30
0.0
 11
128.8999995706865
 21
156.639967871756
 31
0.0
  0
SOLID
  5
145
330
141
100
AcDbEntity
  8
1
 62
     2
100
AcDbTrace
 10
131.1499995706865
 20
157.4361859913276
 30
0.0
 11
131.1499995706865
 21
156.8437497521844
 31
0.0
 12
128.8999995706865
 22
157.139967871756
 32
0.0
 13
128.8999995706865
 23
157.139967871756
 33
0.0
  0
SOLID
  5
146
330
141
100
AcDbEntity
  8
1
 62
     2
100
AcDbTrace
 10
163.2999995706863
 20
156.8437497521844
 30
0.0
 11
163.2999995706863
 21
157.4361859913276
 31
0.0
 12
165.5499995706863
 22
157.139967871756
 32
0.0
 13
165.5499995706863
 23
157.139967871756
 33
0.0
  0
MTEXT
  5
147
330
141
100
AcDbEntity
  8
1
 62
     2
100
AcDbMText
 10
143.8187495706864
 20
158.139967871756
 30
0.0
 40
2.5
 41
0.0
 71
     7
 72
     1
  1
36.5
  7
CONVERTER_11
 11
0.9999999999970619
 21
2.424068405545306E-6
 31
0.0
 73
     1
 44
0.60024009603842
  0
ENDBLK
  5
149
330
141
100
AcDbEntity
  8
0
100
AcDbBlockEnd
  0
BLOCK
  5
154
330
14C
100
AcDbEntity
  8
0
100
AcDbBlockBegin
  2
*D33
 70
     1
 10
0.0
 20
0.0
 30
0.0
  3
*D33
  1

  0
LINE
  5
14D
330
14C
100
AcDbEntity
  8
1
  6
Continuous
 62
     2
100
AcDbLine
 10
107.5499995706863
 20
131.690677520004
 30
0.0
 11
99.211910244287
 21
131.690677520004
 31
0.0
  0
LINE
  5
14E
330
14C
100
AcDbEntity
  8
1
  6
Continuous
 62
     2
100
AcDbLine
 10
167.5499995706863
 20
131.690677520004
 30
0.0
 11
107.5499995706863
 21
131.690677520004
 31
0.0
  0
LINE
  5
14F
330
14C
100
AcDbEntity
  8
1
  6
Continuous
 62
     2
100
AcDbLine
 10
107.5499995706863
 20
134.6406651142138
 30
0.0
 11
107.5499995706863
 21
131.190677520004
 31
0.0
  0
LINE
  5
150
330
14C
100
AcDbEntity
  8
1
  6
Continuous
 62
     2
100
AcDbLine
 10
167.5499995706863
 20
134.6406651142138
 30
0.0
 11
167.5499995706863
 21
131.190677520004
 31
0.0
  0
SOLID
  5
151
330
14C
100
AcDbEntity
  8
1
 62
     2
100
AcDbTrace
 10
165.2999995706863
 20
131.3944594004323
 30
0.0
 11
165.2999995706863
 21
131.9868956395756
 31
0.0
 12
167.5499995706863
 22
131.690677520004
 32
0.0
 13
167.5499995706863
 23
131.690677520004
 33
0.0
  0
SOLID
  5
152
330
14C
100
AcDbEntity
  8
1
 62
     2
100
AcDbTrace
 10
109.7999995706863
 20
131.9868956395756
 30
0.0
 11
109.7999995706863
 21
131.3944594004323
 31
0.0
 12
107.5499995706863
 22
131.690677520004
 32
0.0
 13
107.5499995706863
 23
131.690677520004
 33
0.0
  0
MTEXT
  5
153
330
14C
100
AcDbEntity
  8
1
 62
     2
100
AcDbMText
 10
99.211910244287
 20
132.690677520004
 30
0.0
 40
2.5
 41
0.0
 71
     7
 72
     1
  1
60
  7
CONVERTER_11
 11
0.9999999999970619
 21
2.424068405545306E-6
 31
0.0
 73
     1
 44
0.60024009603842
  0
ENDBLK
  5
155
330
14C
100
AcDbEntity
  8
0
100
AcDbBlockEnd
  0
BLOCK
  5
204
330
1FC
100
AcDbEntity
  8
0
100
AcDbBlockBegin
  2
*D34
 70
     1
 10
0.0
 20
0.0
 30
0.0
  3
*D34
  1

  0
LINE
  5
1FD
330
1FC
100
AcDbEntity
  8
1
  6
Continuous
 62
     2
100
AcDbLine
 10
106.7249999529314
 20
77.1892174118959
 30
0.0
 11
166.7249999529314
 21
77.1892174118959
 31
0.0
  0
LINE
  5
1FE
330
1FC
100
AcDbEntity
  8
1
  6
Continuous
 62
     2
100
AcDbLine
 10
98.2499999529314
 20
77.1892174118959
 30
0.0
 11
106.7249999529314
 21
77.1892174118959
 31
0.0
  0
LINE
  5
1FF
330
1FC
100
AcDbEntity
  8
1
  6
Continuous
 62
     2
100
AcDbLine
 10
166.7249999529314
 20
80.24035697573208
 30
0.0
 11
166.7249999529314
 21
76.6892174118959
 31
0.0
  0
LINE
  5
200
330
1FC
100
AcDbEntity
  8
1
  6
Continuous
 62
     2
100
AcDbLine
 10
106.7249999529314
 20
80.24035697573206
 30
0.0
 11
106.7249999529314
 21
76.6892174118959
 31
0.0
  0
SOLID
  5
201
330
1FC
100
AcDbEntity
  8
1
 62
     2
100
AcDbTrace
 10
108.9749999529314
 20
77.48543553146753
 30
0.0
 11
108.9749999529314
 21
76.89299929232426
 31
0.0
 12
106.7249999529314
 22
77.1892174118959
 32
0.0
 13
106.7249999529314
 23
77.1892174118959
 33
0.0
  0
SOLID
  5
202
330
1FC
100
AcDbEntity
  8
1
 62
     2
100
AcDbTrace
 10
164.4749999529314
 20
76.89299929232426
 30
0.0
 11
164.4749999529314
 21
77.48543553146753
 31
0.0
 12
166.7249999529314
 22
77.1892174118959
 32
0.0
 13
166.7249999529314
 23
77.1892174118959
 33
0.0
  0
MTEXT
  5
203
330
1FC
100
AcDbEntity
  8
1
 62
     2
100
AcDbMText
 10
98.2499999529314
 20
78.1892174118959
 30
0.0
 40
2.5
 41
0.0
 71
     7
 72
     1
  1
60
  7
CONVERTER_11
 11
0.9999999999970619
 21
2.424068405545306E-6
 31
0.0
 73
     1
 44
0.60024009603842
  0
ENDBLK
  5
205
330
1FC
100
AcDbEntity
  8
0
100
AcDbBlockEnd
  0
BLOCK
  5
20F
330
208
100
AcDbEntity
  8
0
100
AcDbBlockBegin
  2
*D35
 70
     1
 10
0.0
 20
0.0
 30
0.0
  3
*D35
  1

  0
LINE
  5
209
330
208
100
AcDbEntity
  8
1
  6
Continuous
 62
     2
100
AcDbLine
 10
164.7249999529313
 20
102.3789843136489
 30
0.0
 11
123.0749999529314
 21
102.3789843136489
 31
0.0
  0
LINE
  5
20A
330
208
100
AcDbEntity
  8
1
  6
Continuous
 62
     2
100
AcDbLine
 10
123.0749999529314
 20
109.7590416680116
 30
0.0
 11
123.0749999529314
 21
101.8789843136489
 31
0.0
  0
LINE
  5
20B
330
208
100
AcDbEntity
  8
1
  6
Continuous
 62
     2
100
AcDbLine
 10
164.7249999529313
 20
109.7590416680644
 30
0.0
 11
164.7249999529313
 21
101.8789843136489
 31
0.0
  0
SOLID
  5
20C
330
208
100
AcDbEntity
  8
1
 62
     2
100
AcDbTrace
 10
162.4749999529313
 20
102.0827661940773
 30
0.0
 11
162.4749999529313
 21
102.6752024332205
 31
0.0
 12
164.7249999529313
 22
102.3789843136489
 32
0.0
 13
164.7249999529313
 23
102.3789843136489
 33
0.0
  0
SOLID
  5
20D
330
208
100
AcDbEntity
  8
1
 62
     2
100
AcDbTrace
 10
125.3249999529314
 20
102.6752024332205
 30
0.0
 11
125.3249999529314
 21
102.0827661940773
 31
0.0
 12
123.0749999529314
 22
102.3789843136489
 32
0.0
 13
123.0749999529314
 23
102.3789843136489
 33
0.0
  0
MTEXT
  5
20E
330
208
100
AcDbEntity
  8
1
 62
     2
100
AcDbMText
 10
140.8687499529314
 20
103.3789843136489
 30
0.0
 40
2.5
 41
0.0
 71
     7
 72
     1
  1
41.5
  7
CONVERTER_11
 11
0.9999999999970619
 21
2.424068405545306E-6
 31
0.0
 73
     1
 44
0.60024009603842
  0
ENDBLK
  5
210
330
208
100
AcDbEntity
  8
0
100
AcDbBlockEnd
  0
BLOCK
  5
21A
330
213
100
AcDbEntity
  8
0
100
AcDbBlockBegin
  2
*D36
 70
     1
 10
0.0
 20
0.0
 30
0.0
  3
*D36
  1

  0
LINE
  5
214
330
213
100
AcDbEntity
  8
1
  6
Continuous
 62
     2
100
AcDbLine
 10
123.0749999529314
 20
114.7795296237359
 30
0.0
 11
168.0749999529315
 21
114.7795296237359
 31
0.0
  0
LINE
  5
215
330
213
100
AcDbEntity
  8
1
  6
Continuous
 62
     2
100
AcDbLine
 10
168.0749999529315
 20
110.7590416680117
 30
0.0
 11
168.0749999529315
 21
115.2795296237359
 31
0.0
  0
LINE
  5
216
330
213
100
AcDbEntity
  8
1
  6
Continuous
 62
     2
100
AcDbLine
 10
123.0749999529314
 20
110.9590416680117
 30
0.0
 11
123.0749999529314
 21
115.2795296237359
 31
0.0
  0
SOLID
  5
217
330
213
100
AcDbEntity
  8
1
 62
     2
100
AcDbTrace
 10
125.3249999529314
 20
115.0757477433075
 30
0.0
 11
125.3249999529314
 21
114.4833115041643
 31
0.0
 12
123.0749999529314
 22
114.7795296237359
 32
0.0
 13
123.0749999529314
 23
114.7795296237359
 33
0.0
  0
SOLID
  5
218
330
213
100
AcDbEntity
  8
1
 62
     2
100
AcDbTrace
 10
165.8249999529315
 20
114.4833115041643
 30
0.0
 11
165.8249999529315
 21
115.0757477433075
 31
0.0
 12
168.0749999529315
 22
114.7795296237359
 32
0.0
 13
168.0749999529315
 23
114.7795296237359
 33
0.0
  0
MTEXT
  5
219
330
213
100
AcDbEntity
  8
1
 62
     2
100
AcDbMText
 10
143.6999999529315
 20
115.7795296237359
 30
0.0
 40
2.5
 41
0.0
 71
     7
 72
     1
  1
45
  7
CONVERTER_11
 11
0.9999999999970619
 21
2.424068405545306E-6
 31
0.0
 73
     1
 44
0.60024009603842
  0
ENDBLK
  5
21B
330
213
100
AcDbEntity
  8
0
100
AcDbBlockEnd
  0
BLOCK
  5
225
330
21E
100
AcDbEntity
  8
0
100
AcDbBlockBegin
  2
*D37
 70
     1
 10
0.0
 20
0.0
 30
0.0
  3
*D37
  1

  0
LINE
  5
21F
330
21E
100
AcDbEntity
  8
1
  6
Continuous
 62
     2
100
AcDbLine
 10
178.6835344631681
 20
110.9590416680117
 30
0.0
 11
178.6835344631681
 21
80.24035697573208
 31
0.0
  0
LINE
  5
220
330
21E
100
AcDbEntity
  8
1
  6
Continuous
 62
     2
100
AcDbLine
 10
166.7249999529314
 20
80.24035697573208
 30
0.0
 11
179.1835344631681
 21
80.24035697573208
 31
0.0
  0
LINE
  5
221
330
21E
100
AcDbEntity
  8
1
  6
Continuous
 62
     2
100
AcDbLine
 10
167.8749999529315
 20
110.9590416680117
 30
0.0
 11
179.1835344631681
 21
110.9590416680117
 31
0.0
  0
SOLID
  5
222
330
21E
100
AcDbEntity
  8
1
 62
     2
100
AcDbTrace
 10
178.9797525827397
 20
108.7090416680117
 30
0.0
 11
178.3873163435964
 21
108.7090416680117
 31
0.0
 12
178.6835344631681
 22
110.9590416680117
 32
0.0
 13
178.6835344631681
 23
110.9590416680117
 33
0.0
  0
SOLID
  5
223
330
21E
100
AcDbEntity
  8
1
 62
     2
100
AcDbTrace
 10
178.3873163435964
 20
82.49035697573208
 30
0.0
 11
178.9797525827397
 21
82.49035697573208
 31
0.0
 12
178.6835344631681
 22
80.24035697573208
 32
0.0
 13
178.6835344631681
 23
80.24035697573208
 33
0.0
  0
MTEXT
  5
224
330
21E
100
AcDbEntity
  8
1
 62
     2
100
AcDbMText
 10
177.6835344631681
 20
94.0996993218719
 30
0.0
 40
2.5
 41
0.0
 71
     7
 72
     1
  1
31
  7
CONVERTER_11
 11
0.0
 21
1.0
 31
0.0
 73
     1
 44
0.60024009603842
  0
ENDBLK
  5
226
330
21E
100
AcDbEntity
  8
0
100
AcDbBlockEnd
  0
BLOCK
  5
2D5
330
2CD
100
AcDbEntity
  8
0
100
AcDbBlockBegin
  2
*D38
 70
     1
 10
0.0
 20
0.0
 30
0.0
  3
*D38
  1

  0
LINE
  5
2CE
330
2CD
100
AcDbEntity
  8
1
  6
Continuous
 62
     2
100
AcDbLine
 10
108.0249999529314
 20
241.800604055203
 30
0.0
 11
98.5499999529314
 21
241.800604055203
 31
0.0
  0
LINE
  5
2CF
330
2CD
100
AcDbEntity
  8
1
  6
Continuous
 62
     2
100
AcDbLine
 10
168.0249999529314
 20
241.800604055203
 30
0.0
 11
108.0249999529314
 21
241.800604055203
 31
0.0
  0
LINE
  5
2D0
330
2CD
100
AcDbEntity
  8
1
  6
Continuous
 62
     2
100
AcDbLine
 10
108.0249999529314
 20
244.8403569756723
 30
0.0
 11
108.0249999529314
 21
241.300604055203
 31
0.0
  0
LINE
  5
2D1
330
2CD
100
AcDbEntity
  8
1
  6
Continuous
 62
     2
100
AcDbLine
 10
168.0249999529314
 20
244.8403569756723
 30
0.0
 11
168.0249999529314
 21
241.300604055203
 31
0.0
  0
SOLID
  5
2D2
330
2CD
100
AcDbEntity
  8
1
 62
     2
100
AcDbTrace
 10
165.7749999529314
 20
241.5043859356313
 30
0.0
 11
165.7749999529314
 21
242.0968221747746
 31
0.0
 12
168.0249999529314
 22
241.800604055203
 32
0.0
 13
168.0249999529314
 23
241.800604055203
 33
0.0
  0
SOLID
  5
2D3
330
2CD
100
AcDbEntity
  8
1
 62
     2
100
AcDbTrace
 10
110.2749999529314
 20
242.0968221747746
 30
0.0
 11
110.2749999529314
 21
241.5043859356313
 31
0.0
 12
108.0249999529314
 22
241.800604055203
 32
0.0
 13
108.0249999529314
 23
241.800604055203
 33
0.0
  0
MTEXT
  5
2D4
330
2CD
100
AcDbEntity
  8
1
 62
     2
100
AcDbMText
 10
98.5499999529314
 20
242.800604055203
 30
0.0
 40
2.5
 41
0.0
 71
     7
 72
     1
  1
60
  7
CONVERTER_11
 11
0.9999999999970619
 21
2.424068405545306E-6
 31
0.0
 73
     1
 44
0.60024009603842
  0
ENDBLK
  5
2D6
330
2CD
100
AcDbEntity
  8
0
100
AcDbBlockEnd
  0
BLOCK
  5
2E0
330
2D9
100
AcDbEntity
  8
0
100
AcDbBlockBegin
  2
*D39
 70
     1
 10
0.0
 20
0.0
 30
0.0
  3
*D39
  1

  0
LINE
  5
2DA
330
2D9
100
AcDbEntity
  8
1
  6
Continuous
 62
     2
100
AcDbLine
 10
179.9835344631681
 20
275.5590416679519
 30
0.0
 11
179.9835344631681
 21
244.8403569756723
 31
0.0
  0
LINE
  5
2DB
330
2D9
100
AcDbEntity
  8
1
  6
Continuous
 62
     2
100
AcDbLine
 10
168.0249999529314
 20
244.8403569756722
 30
0.0
 11
180.4835344631681
 21
244.8403569756722
 31
0.0
  0
LINE
  5
2DC
330
2D9
100
AcDbEntity
  8
1
  6
Continuous
 62
     2
100
AcDbLine
 10
169.1749999529315
 20
275.5590416679519
 30
0.0
 11
180.4835344631681
 21
275.5590416679519
 31
0.0
  0
SOLID
  5
2DD
330
2D9
100
AcDbEntity
  8
1
 62
     2
100
AcDbTrace
 10
180.2797525827397
 20
273.3090416679519
 30
0.0
 11
179.6873163435964
 21
273.3090416679519
 31
0.0
 12
179.9835344631681
 22
275.5590416679519
 32
0.0
 13
179.9835344631681
 23
275.5590416679519
 33
0.0
  0
SOLID
  5
2DE
330
2D9
100
AcDbEntity
  8
1
 62
     2
100
AcDbTrace
 10
179.6873163435964
 20
247.0903569756723
 30
0.0
 11
180.2797525827397
 21
247.0903569756723
 31
0.0
 12
179.9835344631681
 22
244.8403569756723
 32
0.0
 13
179.9835344631681
 23
244.8403569756723
 33
0.0
  0
MTEXT
  5
2DF
330
2D9
100
AcDbEntity
  8
1
 62
     2
100
AcDbMText
 10
178.9835344631681
 20
258.6996993218121
 30
0.0
 40
2.5
 41
0.0
 71
     7
 72
     1
  1
31
  7
CONVERTER_11
 11
0.0
 21
1.0
 31
0.0
 73
     1
 44
0.60024009603842
  0
ENDBLK
  5
2E1
330
2D9
100
AcDbEntity
  8
0
100
AcDbBlockEnd
  0
BLOCK
  5
2EB
330
2E4
100
AcDbEntity
  8
0
100
AcDbBlockBegin
  2
*D40
 70
     1
 10
0.0
 20
0.0
 30
0.0
  3
*D40
  1

  0
LINE
  5
2E5
330
2E4
100
AcDbEntity
  8
1
  6
Continuous
 62
     2
100
AcDbLine
 10
166.0249999529504
 20
267.6216113274556
 30
0.0
 11
147.3749999529505
 21
267.6216113274028
 31
0.0
  0
LINE
  5
2E6
330
2E4
100
AcDbEntity
  8
1
  6
Continuous
 62
     2
100
AcDbLine
 10
147.3749999529315
 20
274.3590416679519
 30
0.0
 11
147.374999952952
 21
267.1216113274028
 31
0.0
  0
LINE
  5
2E7
330
2E4
100
AcDbEntity
  8
1
  6
Continuous
 62
     2
100
AcDbLine
 10
166.0249999529314
 20
274.3590416680046
 30
0.0
 11
166.0249999529518
 21
267.1216113274556
 31
0.0
  0
SOLID
  5
2E8
330
2E4
100
AcDbEntity
  8
1
 62
     2
100
AcDbTrace
 10
163.7749999529504
 20
267.325393207884
 30
0.0
 11
163.7749999529504
 21
267.9178294470272
 31
0.0
 12
166.0249999529504
 22
267.6216113274556
 32
0.0
 13
166.0249999529504
 23
267.6216113274556
 33
0.0
  0
SOLID
  5
2E9
330
2E4
100
AcDbEntity
  8
1
 62
     2
100
AcDbTrace
 10
149.6249999529505
 20
267.9178294469745
 30
0.0
 11
149.6249999529505
 21
267.3253932078312
 31
0.0
 12
147.3749999529505
 22
267.6216113274028
 32
0.0
 13
147.3749999529505
 23
267.6216113274028
 33
0.0
  0
MTEXT
  5
2EA
330
2E4
100
AcDbEntity
  8
1
 62
     2
100
AcDbMText
 10
153.6687499529441
 20
268.6216113274292
 30
0.0
 40
2.5
 41
0.0
 71
     7
 72
     1
  1
18.5
  7
CONVERTER_11
 11
0.9999999999970619
 21
2.424068405545306E-6
 31
0.0
 73
     1
 44
0.60024009603842
  0
ENDBLK
  5
2EC
330
2E4
100
AcDbEntity
  8
0
100
AcDbBlockEnd
  0
BLOCK
  5
2F6
330
2EF
100
AcDbEntity
  8
0
100
AcDbBlockBegin
  2
*D41
 70
     1
 10
0.0
 20
0.0
 30
0.0
  3
*D41
  1

  0
LINE
  5
2F0
330
2EF
100
AcDbEntity
  8
1
  6
Continuous
 62
     2
100
AcDbLine
 10
147.3749999529314
 20
279.8790874900869
 30
0.0
 11
169.3749999529315
 21
279.8790874900869
 31
0.0
  0
LINE
  5
2F1
330
2EF
100
AcDbEntity
  8
1
  6
Continuous
 62
     2
100
AcDbLine
 10
169.3749999529315
 20
275.3590416679518
 30
0.0
 11
169.3749999529315
 21
280.3790874900869
 31
0.0
  0
LINE
  5
2F2
330
2EF
100
AcDbEntity
  8
1
  6
Continuous
 62
     2
100
AcDbLine
 10
147.3749999529314
 20
275.5590416679518
 30
0.0
 11
147.3749999529314
 21
280.3790874900869
 31
0.0
  0
SOLID
  5
2F3
330
2EF
100
AcDbEntity
  8
1
 62
     2
100
AcDbTrace
 10
149.6249999529314
 20
280.1753056096585
 30
0.0
 11
149.6249999529314
 21
279.5828693705153
 31
0.0
 12
147.3749999529314
 22
279.8790874900869
 32
0.0
 13
147.3749999529314
 23
279.8790874900869
 33
0.0
  0
SOLID
  5
2F4
330
2EF
100
AcDbEntity
  8
1
 62
     2
100
AcDbTrace
 10
167.1249999529315
 20
279.5828693705153
 30
0.0
 11
167.1249999529315
 21
280.1753056096585
 31
0.0
 12
169.3749999529315
 22
279.8790874900869
 32
0.0
 13
169.3749999529315
 23
279.8790874900869
 33
0.0
  0
MTEXT
  5
2F5
330
2EF
100
AcDbEntity
  8
1
 62
     2
100
AcDbMText
 10
156.4999999529315
 20
280.8790874900869
 30
0.0
 40
2.5
 41
0.0
 71
     7
 72
     1
  1
22
  7
CONVERTER_11
 11
0.9999999999970619
 21
2.424068405545306E-6
 31
0.0
 73
     1
 44
0.60024009603842
  0
ENDBLK
  5
2F7
330
2EF
100
AcDbEntity
  8
0
100
AcDbBlockEnd
  0
BLOCK
  5
3A6
330
39E
100
AcDbEntity
  8
0
100
AcDbBlockBegin
  2
*D42
 70
     1
 10
0.0
 20
0.0
 30
0.0
  3
*D42
  1

  0
LINE
  5
39F
330
39E
100
AcDbEntity
  8
1
  6
Continuous
 62
     2
100
AcDbLine
 10
108.0249999529313
 20
187.019987684209
 30
0.0
 11
168.0249999529313
 21
187.019987684209
 31
0.0
  0
LINE
  5
3A0
330
39E
100
AcDbEntity
  8
1
  6
Continuous
 62
     2
100
AcDbLine
 10
99.2499999529313
 20
187.019987684209
 30
0.0
 11
108.0249999529313
 21
187.019987684209
 31
0.0
  0
LINE
  5
3A1
330
39E
100
AcDbEntity
  8
1
  6
Continuous
 62
     2
100
AcDbLine
 10
168.0249999529313
 20
190.2403569754922
 30
0.0
 11
168.0249999529313
 21
186.519987684209
 31
0.0
  0
LINE
  5
3A2
330
39E
100
AcDbEntity
  8
1
  6
Continuous
 62
     2
100
AcDbLine
 10
108.0249999529313
 20
190.2403569754922
 30
0.0
 11
108.0249999529313
 21
186.519987684209
 31
0.0
  0
SOLID
  5
3A3
330
39E
100
AcDbEntity
  8
1
 62
     2
100
AcDbTrace
 10
110.2749999529313
 20
187.3162058037807
 30
0.0
 11
110.2749999529313
 21
186.7237695646374
 31
0.0
 12
108.0249999529313
 22
187.019987684209
 32
0.0
 13
108.0249999529313
 23
187.019987684209
 33
0.0
  0
SOLID
  5
3A4
330
39E
100
AcDbEntity
  8
1
 62
     2
100
AcDbTrace
 10
165.7749999529313
 20
186.7237695646374
 30
0.0
 11
165.7749999529313
 21
187.3162058037807
 31
0.0
 12
168.0249999529313
 22
187.019987684209
 32
0.0
 13
168.0249999529313
 23
187.019987684209
 33
0.0
  0
MTEXT
  5
3A5
330
39E
100
AcDbEntity
  8
1
 62
     2
100
AcDbMText
 10
99.2499999529313
 20
188.019987684209
 30
0.0
 40
2.5
 41
0.0
 71
     7
 72
     1
  1
60
  7
CONVERTER_11
 11
0.9999999999970619
 21
2.424068405545306E-6
 31
0.0
 73
     1
 44
0.60024009603842
  0
ENDBLK
  5
3A7
330
39E
100
AcDbEntity
  8
0
100
AcDbBlockEnd
  0
BLOCK
  5
3B1
330
3AA
100
AcDbEntity
  8
0
100
AcDbBlockBegin
  2
*D43
 70
     1
 10
0.0
 20
0.0
 30
0.0
  3
*D43
  1

  0
LINE
  5
3AB
330
3AA
100
AcDbEntity
  8
1
  6
Continuous
 62
     2
100
AcDbLine
 10
179.9835344631681
 20
220.9590416677718
 30
0.0
 11
179.9835344631681
 21
190.2403569754922
 31
0.0
  0
LINE
  5
3AC
330
3AA
100
AcDbEntity
  8
1
  6
Continuous
 62
     2
100
AcDbLine
 10
168.0249999529313
 20
190.2403569754922
 30
0.0
 11
180.4835344631681
 21
190.2403569754922
 31
0.0
  0
LINE
  5
3AD
330
3AA
100
AcDbEntity
  8
1
  6
Continuous
 62
     2
100
AcDbLine
 10
169.1749999529314
 20
220.9590416677718
 30
0.0
 11
180.4835344631681
 21
220.9590416677718
 31
0.0
  0
SOLID
  5
3AE
330
3AA
100
AcDbEntity
  8
1
 62
     2
100
AcDbTrace
 10
180.2797525827397
 20
218.7090416677718
 30
0.0
 11
179.6873163435964
 21
218.7090416677718
 31
0.0
 12
179.9835344631681
 22
220.9590416677718
 32
0.0
 13
179.9835344631681
 23
220.9590416677718
 33
0.0
  0
SOLID
  5
3AF
330
3AA
100
AcDbEntity
  8
1
 62
     2
100
AcDbTrace
 10
179.6873163435964
 20
192.4903569754922
 30
0.0
 11
180.2797525827397
 21
192.4903569754922
 31
0.0
 12
179.9835344631681
 22
190.2403569754922
 32
0.0
 13
179.9835344631681
 23
190.2403569754922
 33
0.0
  0
MTEXT
  5
3B0
330
3AA
100
AcDbEntity
  8
1
 62
     2
100
AcDbMText
 10
178.9835344631681
 20
204.099699321632
 30
0.0
 40
2.5
 41
0.0
 71
     7
 72
     1
  1
31
  7
CONVERTER_11
 11
0.0
 21
1.0
 31
0.0
 73
     1
 44
0.60024009603842
  0
ENDBLK
  5
3B2
330
3AA
100
AcDbEntity
  8
0
100
AcDbBlockEnd
  0
BLOCK
  5
3BC
330
3B5
100
AcDbEntity
  8
0
100
AcDbBlockBegin
  2
*D44
 70
     1
 10
0.0
 20
0.0
 30
0.0
  3
*D44
  1

  0
LINE
  5
3B6
330
3B5
100
AcDbEntity
  8
1
  6
Continuous
 62
     2
100
AcDbLine
 10
166.0249999529423
 20
213.3560504838381
 30
0.0
 11
135.3749999529423
 21
213.3560504837853
 31
0.0
  0
LINE
  5
3B7
330
3B5
100
AcDbEntity
  8
1
  6
Continuous
 62
     2
100
AcDbLine
 10
135.3749999529313
 20
219.7590416677718
 30
0.0
 11
135.3749999529431
 21
212.8560504837853
 31
0.0
  0
LINE
  5
3B8
330
3B5
100
AcDbEntity
  8
1
  6
Continuous
 62
     2
100
AcDbLine
 10
166.0249999529312
 20
219.7590416678246
 30
0.0
 11
166.0249999529431
 21
212.8560504838381
 31
0.0
  0
SOLID
  5
3B9
330
3B5
100
AcDbEntity
  8
1
 62
     2
100
AcDbTrace
 10
163.7749999529423
 20
213.0598323642664
 30
0.0
 11
163.7749999529423
 21
213.6522686034097
 31
0.0
 12
166.0249999529423
 22
213.3560504838381
 32
0.0
 13
166.0249999529423
 23
213.3560504838381
 33
0.0
  0
SOLID
  5
3BA
330
3B5
100
AcDbEntity
  8
1
 62
     2
100
AcDbTrace
 10
137.6249999529423
 20
213.652268603357
 30
0.0
 11
137.6249999529423
 21
213.0598323642137
 31
0.0
 12
135.3749999529423
 22
213.3560504837853
 32
0.0
 13
135.3749999529423
 23
213.3560504837853
 33
0.0
  0
MTEXT
  5
3BB
330
3B5
100
AcDbEntity
  8
1
 62
     2
100
AcDbMText
 10
147.2937499529384
 20
214.3560504838117
 30
0.0
 40
2.5
 41
0.0
 71
     7
 72
     1
  1
30.5
  7
CONVERTER_11
 11
0.9999999999970619
 21
2.424068405545306E-6
 31
0.0
 73
     1
 44
0.60024009603842
  0
ENDBLK
  5
3BD
330
3B5
100
AcDbEntity
  8
0
100
AcDbBlockEnd
  0
BLOCK
  5
3C7
330
3C0
100
AcDbEntity
  8
0
100
AcDbBlockBegin
  2
*D45
 70
     1
 10
0.0
 20
0.0
 30
0.0
  3
*D45
  1

  0
LINE
  5
3C1
330
3C0
100
AcDbEntity
  8
1
  6
Continuous
 62
     2
100
AcDbLine
 10
135.3749999529313
 20
225.451106641096
 30
0.0
 11
169.3749999529314
 21
225.451106641096
 31
0.0
  0
LINE
  5
3C2
330
3C0
100
AcDbEntity
  8
1
  6
Continuous
 62
     2
100
AcDbLine
 10
169.3749999529314
 20
220.7590416677719
 30
0.0
 11
169.3749999529314
 21
225.951106641096
 31
0.0
  0
LINE
  5
3C3
330
3C0
100
AcDbEntity
  8
1
  6
Continuous
 62
     2
100
AcDbLine
 10
135.3749999529313
 20
220.9590416677718
 30
0.0
 11
135.3749999529313
 21
225.951106641096
 31
0.0
  0
SOLID
  5
3C4
330
3C0
100
AcDbEntity
  8
1
 62
     2
100
AcDbTrace
 10
137.6249999529313
 20
225.7473247606677
 30
0.0
 11
137.6249999529313
 21
225.1548885215244
 31
0.0
 12
135.3749999529313
 22
225.451106641096
 32
0.0
 13
135.3749999529313
 23
225.451106641096
 33
0.0
  0
SOLID
  5
3C5
330
3C0
100
AcDbEntity
  8
1
 62
     2
100
AcDbTrace
 10
167.1249999529314
 20
225.1548885215244
 30
0.0
 11
167.1249999529314
 21
225.7473247606677
 31
0.0
 12
169.3749999529314
 22
225.451106641096
 32
0.0
 13
169.3749999529314
 23
225.451106641096
 33
0.0
  0
MTEXT
  5
3C6
330
3C0
100
AcDbEntity
  8
1
 62
     2
100
AcDbMText
 10
150.4999999529314
 20
226.451106641096
 30
0.0
 40
2.5
 41
0.0
 71
     7
 72
     1
  1
34
  7
CONVERTER_11
 11
0.9999999999970619
 21
2.424068405545306E-6
 31
0.0
 73
     1
 44
0.60024009603842
  0
ENDBLK
  5
3C8
330
3C0
100
AcDbEntity
  8
0
100
AcDbBlockEnd
  0
ENDSEC
  0
SECTION
  2
ENTITIES
  0
INSERT
  5
B7
330
1F
100
AcDbEntity
  8
0
100
AcDbBlockReference
  2
Vordans2
 10
-7.30000000008005
 20
150.0000000002499
 30
0.0
  0
INSERT
  5
B8
330
1F
100
AcDbEntity
  8
0
100
AcDbBlockReference
  2
Std_SlideAlu_U45
 10
456.4000000003101
 20
95.60000191720009
 30
0.0
  0
INSERT
  5
B9
330
1F
100
AcDbEntity
  8
0
100
AcDbBlockReference
  2
Std_SlideAlu_U22
 10
107.7000000003101
 20
260.2000019171701
 30
0.0
  0
INSERT
  5
BA
330
1F
100
AcDbEntity
  8
0
100
AcDbBlockReference
  2
Std_SlideAlu_U34
 10
107.7000000003101
 20
205.6000019170801
 30
0.0
  0
INSERT
  5
BB
330
1F
100
AcDbEntity
  8
0
100
AcDbBlockReference
  2
A4_Hoch__17
 10
0.0
 20
0.0
 30
0.0
  0
ENDSEC
  0
SECTION
  2
OBJECTS
  0
DICTIONARY
  5
C
330
0
100
AcDbDictionary
281
     1
  3
ACAD_GROUP
350
D
  3
ACAD_IMAGE_DICT
350
435
  3
ACAD_LAYOUT
350
1A
  3
ACAD_MATERIAL
350
3B
  3
ACAD_MLEADERSTYLE
350
476
  3
ACAD_MLINESTYLE
350
17
  3
ACAD_PLOTSETTINGS
350
19
  3
ACAD_PLOTSTYLENAME
350
E
  3
ACAD_VISUALSTYLE
350
2A
  3
AcDbVariableDictionary
350
474
  0
IMAGEDEF_REACTOR
  5
438
330
437
100
AcDbRasterImageDefReactor
 90
        2
330
437
  0
DICTIONARY
  5
D
102
{ACAD_REACTORS
330
C
102
}
330
C
100
AcDbDictionary
281
     1
  0
DICTIONARY
  5
435
102
{ACAD_REACTORS
330
C
102
}
330
C
100
AcDbDictionary
281
     1
  3
HELONEU.tif
350
436
  0
DICTIONARY
  5
1A
102
{ACAD_REACTORS
330
C
102
}
330
C
100
AcDbDictionary
281
     1
  3
Layout1
350
1E
  3
Layout2
350
26
  3
Model
350
22
  0
DICTIONARY
  5
3B
102
{ACAD_REACTORS
330
C
102
}
330
C
100
AcDbDictionary
281
     1
  3
ByBlock
350
3D
  3
ByLayer
350
3C
  3
Global
350
3E
  0
DICTIONARY
  5
476
102
{ACAD_REACTORS
330
C
102
}
330
C
100
AcDbDictionary
281
     1
  0
DICTIONARY
  5
17
102
{ACAD_REACTORS
330
C
102
}
330
C
100
AcDbDictionary
281
     1
  3
Standard
350
18
  0
DICTIONARY
  5
19
102
{ACAD_REACTORS
330
C
102
}
330
C
100
AcDbDictionary
281
     1
  0
ACDBDICTIONARYWDFLT
  5
E
102
{ACAD_REACTORS
330
C
102
}
330
C
100
AcDbDictionary
281
     1
  3
Normal
350
F
100
AcDbDictionaryWithDefault
340
F
  0
DICTIONARY
  5
2A
102
{ACAD_REACTORS
330
C
102
}
330
C
100
AcDbDictionary
281
     1
  3
2dWireframe
350
2F
  3
3D Hidden
350
31
  3
3dWireframe
350
30
  3
Basic
350
32
  3
Brighten
350
36
  3
ColorChange
350
3A
  3
Conceptual
350
34
  3
Dim
350
35
  3
Facepattern
350
39
  3
Flat
350
2B
  3
FlatWithEdges
350
2C
  3
Gouraud
350
2D
  3
GouraudWithEdges
350
2E
  3
Linepattern
350
38
  3
Realistic
350
33
  3
Thicken
350
37
  0
DICTIONARY
  5
474
102
{ACAD_REACTORS
330
C
102
}
330
C
100
AcDbDictionary
281
     1
  3
DIMASSOC
350
477
  3
HIDETEXT
350
478
  0
IMAGEDEF
  5
436
102
{ACAD_REACTORS
330
435
330
438
102
}
330
435
100
AcDbRasterImageDef
 90
        0
  1
.HELONEU.tif
 10
1435.0
 20
736.0
 11
0.1693333333333333
 21
0.1693333333333333
280
     1
281
     1
  0
LAYOUT
  5
1E
102
{ACAD_REACTORS
330
1A
102
}
330
1A
100
AcDbPlotSettings
  1

  2
none_device
  4

  6

 40
0.0
 41
0.0
 42
0.0
 43
0.0
 44
0.0
 45
0.0
 46
0.0
 47
0.0
 48
0.0
 49
0.0
140
0.0
141
0.0
142
1.0
143
1.0
 70
   688
 72
     0
 73
     0
 74
     5
  7

 75
    16
147
1.0
148
0.0
149
0.0
100
AcDbLayout
  1
Layout1
 70
     1
 71
     1
 10
0.0
 20
0.0
 11
12.0
 21
9.0
 12
0.0
 22
0.0
 32
0.0
 14
1.00000000000000E+20
 24
1.00000000000000E+20
 34
1.00000000000000E+20
 15
-1.00000000000000E+20
 25
-1.00000000000000E+20
 35
-1.00000000000000E+20
146
0.0
 13
0.0
 23
0.0
 33
0.0
 16
1.0
 26
0.0
 36
0.0
 17
0.0
 27
1.0
 37
0.0
 76
     0
330
1B
  0
LAYOUT
  5
26
102
{ACAD_REACTORS
330
1A
102
}
330
1A
100
AcDbPlotSettings
  1

  2
none_device
  4

  6

 40
0.0
 41
0.0
 42
0.0
 43
0.0
 44
0.0
 45
0.0
 46
0.0
 47
0.0
 48
0.0
 49
0.0
140
0.0
141
0.0
142
1.0
143
1.0
 70
   688
 72
     0
 73
     0
 74
     5
  7

 75
    16
147
1.0
148
0.0
149
0.0
100
AcDbLayout
  1
Layout2
 70
     1
 71
     2
 10
0.0
 20
0.0
 11
0.0
 21
0.0
 12
0.0
 22
0.0
 32
0.0
 14
0.0
 24
0.0
 34
0.0
 15
0.0
 25
0.0
 35
0.0
146
0.0
 13
0.0
 23
0.0
 33
0.0
 16
1.0
 26
0.0
 36
0.0
 17
0.0
 27
1.0
 37
0.0
 76
     0
330
23
  0
LAYOUT
  5
22
102
{ACAD_REACTORS
330
1A
102
}
330
1A
100
AcDbPlotSettings
  1

  2
none_device
  4

  6

 40
0.0
 41
0.0
 42
0.0
 43
0.0
 44
0.0
 45
0.0
 46
0.0
 47
0.0
 48
0.0
 49
0.0
140
0.0
141
0.0
142
1.0
143
1.0
 70
  1712
 72
     0
 73
     0
 74
     0
  7

 75
     0
147
1.0
148
0.0
149
0.0
100
AcDbLayout
  1
Model
 70
     1
 71
     0
 10
0.0
 20
0.0
 11
12.0
 21
9.0
 12
0.0
 22
0.0
 32
0.0
 14
-8.70000000008005
 24
2.99999988108208
 34
0.0
 15
200.4000000050782
 25
288.399999881082
 35
0.0
146
0.0
 13
0.0
 23
0.0
 33
0.0
 16
1.0
 26
0.0
 36
0.0
 17
0.0
 27
1.0
 37
0.0
 76
     0
330
1F
331
29
  0
MATERIAL
  5
3D
102
{ACAD_REACTORS
330
3B
102
}
102
{ACAD_XDICTIONARY
360
49B
102
}
330
3B
100
AcDbMaterial
  1
ByBlock
  0
MATERIAL
  5
3C
102
{ACAD_REACTORS
330
3B
102
}
102
{ACAD_XDICTIONARY
360
499
102
}
330
3B
100
AcDbMaterial
  1
ByLayer
  0
MATERIAL
  5
3E
102
{ACAD_REACTORS
330
3B
102
}
102
{ACAD_XDICTIONARY
360
49D
102
}
330
3B
100
AcDbMaterial
  1
Global
  0
MLINESTYLE
  5
18
102
{ACAD_REACTORS
330
17
102
}
330
17
100
AcDbMlineStyle
  2
Standard
 70
     0
  3

 62
   256
 51
90.0
 52
90.0
 71
     2
 49
0.5
 62
   256
  6
BYLAYER
 49
-0.5
 62
   256
  6
BYLAYER
  0
ACDBPLACEHOLDER
  5
F
102
{ACAD_REACTORS
330
E
102
}
330
E
  0
VISUALSTYLE
  5
2F
102
{ACAD_REACTORS
330
2A
102
}
102
{ACAD_XDICTIONARY
360
481
102
}
330
2A
100
AcDbVisualStyle
  2
2dWireframe
 70
     4
 71
     0
 72
     2
 73
     0
 90
        0
 40
-0.6
 41
-30.0
 62
     5
 63
     7
 74
     1
 91
        4
 64
     7
 65
   257
 75
     1
175
     1
 42
1.0
 92
        0
 66
   257
 43
1.0
 76
     1
 77
     6
 78
     2
 67
     7
 79
     5
170
     0
171
     0
290
     0
174
     0
 93
        1
 44
0.0
173
     0
291
     0
 45
0.0
1001
ACAD
1000
AcDbSavedByObjectVersion
1070
     0
  0
VISUALSTYLE
  5
31
102
{ACAD_REACTORS
330
2A
102
}
102
{ACAD_XDICTIONARY
360
485
102
}
330
2A
100
AcDbVisualStyle
  2
3D Hidden
 70
     6
 71
     1
 72
     2
 73
     2
 90
        0
 40
-0.6
 41
-30.0
 62
     5
 63
     7
 74
     2
 91
        2
 64
     7
 65
   257
 75
     2
175
     1
 42
40.0
 92
        0
 66
   257
 43
1.0
 76
     1
 77
     6
 78
     2
 67
     7
 79
     3
170
     0
171
     0
290
     0
174
     0
 93
        1
 44
0.0
173
     0
291
     0
 45
0.0
1001
ACAD
1000
AcDbSavedByObjectVersion
1070
     0
  0
VISUALSTYLE
  5
30
102
{ACAD_REACTORS
330
2A
102
}
102
{ACAD_XDICTIONARY
360
483
102
}
330
2A
100
AcDbVisualStyle
  2
3dWireframe
 70
     5
 71
     0
 72
     2
 73
     0
 90
        0
 40
-0.6
 41
-30.0
 62
     5
 63
     7
 74
     1
 91
        4
 64
     7
 65
   257
 75
     1
175
     1
 42
1.0
 92
        0
 66
   257
 43
1.0
 76
     1
 77
     6
 78
     2
 67
     7
 79
     5
170
     0
171
     0
290
     0
174
     0
 93
        1
 44
0.0
173
     0
291
     0
 45
0.0
1001
ACAD
1000
AcDbSavedByObjectVersion
1070
     0
  0
VISUALSTYLE
  5
32
102
{ACAD_REACTORS
330
2A
102
}
102
{ACAD_XDICTIONARY
360
487
102
}
330
2A
100
AcDbVisualStyle
  2
Basic
 70
     7
 71
     1
 72
     0
 73
     1
 90
        0
 40
-0.6
 41
-30.0
 62
     5
 63
     7
 74
     0
 91
        4
 64
     7
 65
   257
 75
     1
175
     1
 42
1.0
 92
        8
 66
     7
 43
1.0
 76
     1
 77
     6
 78
     2
 67
     7
 79
     5
170
     0
171
     0
290
     0
174
     0
 93
        1
 44
0.0
173
     0
291
     1
 45
0.0
1001
ACAD
1000
AcDbSavedByObjectVersion
1070
     0
  0
VISUALSTYLE
  5
36
102
{ACAD_REACTORS
330
2A
102
}
102
{ACAD_XDICTIONARY
360
48F
102
}
330
2A
100
AcDbVisualStyle
  2
Brighten
 70
    12
 71
     2
 72
     2
 73
     0
 90
        0
 40
-0.6
 41
-30.0
 62
     5
 63
     7
 74
     1
 91
        4
 64
     7
 65
   257
 75
     1
175
     1
 42
1.0
 92
        8
 66
     7
 43
1.0
 76
     1
 77
     6
 78
     2
 67
     7
 79
     5
170
     0
171
     0
290
     0
174
     0
 93
        1
 44
50.0
173
     0
291
     1
 45
0.0
1001
ACAD
1000
AcDbSavedByObjectVersion
1070
     0
  0
VISUALSTYLE
  5
3A
102
{ACAD_REACTORS
330
2A
102
}
102
{ACAD_XDICTIONARY
360
497
102
}
330
2A
100
AcDbVisualStyle
  2
ColorChange
 70
    16
 71
     2
 72
     2
 73
     3
 90
        0
 40
-0.6
 41
-30.0
 62
     5
 63
     8
 74
     1
 91
        4
 64
     7
 65
   257
 75
     1
175
     1
 42
1.0
 92
        8
 66
     8
 43
1.0
 76
     1
 77
     6
 78
     2
 67
     7
 79
     5
170
     0
171
     0
290
     0
174
     0
 93
        1
 44
0.0
173
     0
291
     1
 45
0.0
1001
ACAD
1000
AcDbSavedByObjectVersion
1070
     0
  0
VISUALSTYLE
  5
34
102
{ACAD_REACTORS
330
2A
102
}
102
{ACAD_XDICTIONARY
360
48B
102
}
330
2A
100
AcDbVisualStyle
  2
Conceptual
 70
     9
 71
     3
 72
     2
 73
     0
 90
        0
 40
-0.6
 41
-30.0
 62
     5
 63
     7
 74
     2
 91
        2
 64
     7
 65
   257
 75
     1
175
     1
 42
40.0
 92
        8
 66
     7
 43
1.0
 76
     1
 77
     6
 78
     2
 67
     7
 79
     3
170
     0
171
     0
290
     0
174
     0
 93
        1
 44
0.0
173
     0
291
     0
 45
0.0
1001
ACAD
1000
AcDbSavedByObjectVersion
1070
     0
  0
VISUALSTYLE
  5
35
102
{ACAD_REACTORS
330
2A
102
}
102
{ACAD_XDICTIONARY
360
48D
102
}
330
2A
100
AcDbVisualStyle
  2
Dim
 70
    11
 71
     2
 72
     2
 73
     0
 90
        0
 40
-0.6
 41
-30.0
 62
     5
 63
     7
 74
     1
 91
        4
 64
     7
 65
   257
 75
     1
175
     1
 42
1.0
 92
        8
 66
     7
 43
1.0
 76
     1
 77
     6
 78
     2
 67
     7
 79
     5
170
     0
171
     0
290
     0
174
     0
 93
        1
 44
-50.0
173
     0
291
     1
 45
0.0
1001
ACAD
1000
AcDbSavedByObjectVersion
1070
     0
  0
VISUALSTYLE
  5
39
102
{ACAD_REACTORS
330
2A
102
}
102
{ACAD_XDICTIONARY
360
495
102
}
330
2A
100
AcDbVisualStyle
  2
Facepattern
 70
    15
 71
     2
 72
     2
 73
     0
 90
        0
 40
-0.6
 41
-30.0
 62
     5
 63
     7
 74
     1
 91
        4
 64
     7
 65
   257
 75
     1
175
     1
 42
1.0
 92
        8
 66
     7
 43
1.0
 76
     1
 77
     6
 78
     2
 67
     7
 79
     5
170
     0
171
     0
290
     0
174
     0
 93
        1
 44
0.0
173
     0
291
     1
 45
0.0
1001
ACAD
1000
AcDbSavedByObjectVersion
1070
     0
  0
VISUALSTYLE
  5
2B
102
{ACAD_REACTORS
330
2A
102
}
102
{ACAD_XDICTIONARY
360
479
102
}
330
2A
100
AcDbVisualStyle
  2
Flat
 70
     0
 71
     2
 72
     1
 73
     1
 90
        2
 40
-0.6
 41
30.0
 62
     5
 63
     7
 74
     0
 91
        4
 64
     7
 65
   257
 75
     1
175
     1
 42
1.0
 92
        8
 66
     7
 43
1.0
 76
     1
 77
     6
 78
     2
 67
     7
 79
     5
170
     0
171
     0
290
     0
174
     0
 93
       13
 44
0.0
173
     0
291
     1
 45
0.0
1001
ACAD
1000
AcDbSavedByObjectVersion
1070
     0
  0
VISUALSTYLE
  5
2C
102
{ACAD_REACTORS
330
2A
102
}
102
{ACAD_XDICTIONARY
360
47B
102
}
330
2A
100
AcDbVisualStyle
  2
FlatWithEdges
 70
     1
 71
     2
 72
     1
 73
     1
 90
        2
 40
-0.6
 41
30.0
 62
     5
 63
     7
 74
     1
 91
        4
 64
     7
 65
   257
 75
     1
175
     1
 42
1.0
 92
        0
 66
   257
 43
1.0
 76
     1
 77
     6
 78
     2
 67
     7
 79
     5
170
     0
171
     0
290
     0
174
     0
 93
       13
 44
0.0
173
     0
291
     1
 45
0.0
1001
ACAD
1000
AcDbSavedByObjectVersion
1070
     0
  0
VISUALSTYLE
  5
2D
102
{ACAD_REACTORS
330
2A
102
}
102
{ACAD_XDICTIONARY
360
47D
102
}
330
2A
100
AcDbVisualStyle
  2
Gouraud
 70
     2
 71
     2
 72
     2
 73
     1
 90
        2
 40
-0.6
 41
30.0
 62
     5
 63
     7
 74
     0
 91
        4
 64
     7
 65
   257
 75
     1
175
     1
 42
1.0
 92
        0
 66
     7
 43
1.0
 76
     1
 77
     6
 78
     2
 67
     7
 79
     5
170
     0
171
     0
290
     0
174
     0
 93
       13
 44
0.0
173
     0
291
     1
 45
0.0
1001
ACAD
1000
AcDbSavedByObjectVersion
1070
     0
  0
VISUALSTYLE
  5
2E
102
{ACAD_REACTORS
330
2A
102
}
102
{ACAD_XDICTIONARY
360
47F
102
}
330
2A
100
AcDbVisualStyle
  2
GouraudWithEdges
 70
     3
 71
     2
 72
     2
 73
     1
 90
        2
 40
-0.6
 41
30.0
 62
     5
 63
     7
 74
     1
 91
        4
 64
     7
 65
   257
 75
     1
175
     1
 42
1.0
 92
        0
 66
   257
 43
1.0
 76
     1
 77
     6
 78
     2
 67
     7
 79
     5
170
     0
171
     0
290
     0
174
     0
 93
       13
 44
0.0
173
     0
291
     1
 45
0.0
1001
ACAD
1000
AcDbSavedByObjectVersion
1070
     0
  0
VISUALSTYLE
  5
38
102
{ACAD_REACTORS
330
2A
102
}
102
{ACAD_XDICTIONARY
360
493
102
}
330
2A
100
AcDbVisualStyle
  2
Linepattern
 70
    14
 71
     2
 72
     2
 73
     0
 90
        0
 40
-0.6
 41
-30.0
 62
     5
 63
     7
 74
     1
 91
        4
 64
     7
 65
   257
 75
     7
175
     7
 42
1.0
 92
        8
 66
     7
 43
1.0
 76
     1
 77
     6
 78
     2
 67
     7
 79
     5
170
     0
171
     0
290
     0
174
     0
 93
        1
 44
0.0
173
     0
291
     1
 45
0.0
1001
ACAD
1000
AcDbSavedByObjectVersion
1070
     0
  0
VISUALSTYLE
  5
33
102
{ACAD_REACTORS
330
2A
102
}
102
{ACAD_XDICTIONARY
360
489
102
}
330
2A
100
AcDbVisualStyle
  2
Realistic
 70
     8
 71
     2
 72
     2
 73
     0
 90
        0
 40
-0.6
 41
-30.0
 62
     5
 63
     7
 74
     1
 91
        0
 64
     7
 65
   257
 75
     1
175
     1
 42
1.0
 92
        8
 66
     8
 43
1.0
 76
     1
 77
     6
 78
     2
 67
     7
 79
     5
170
     0
171
     0
290
     0
174
     0
 93
       13
 44
0.0
173
     0
291
     0
 45
0.0
1001
ACAD
1000
AcDbSavedByObjectVersion
1070
     0
  0
VISUALSTYLE
  5
37
102
{ACAD_REACTORS
330
2A
102
}
102
{ACAD_XDICTIONARY
360
491
102
}
330
2A
100
AcDbVisualStyle
  2
Thicken
 70
    13
 71
     2
 72
     2
 73
     0
 90
        0
 40
-0.6
 41
-30.0
 62
     5
 63
     7
 74
     1
 91
        4
 64
     7
 65
   257
 75
     1
175
     1
 42
1.0
 92
       12
 66
     7
 43
1.0
 76
     1
 77
     6
 78
     2
 67
     7
 79
     5
170
     0
171
     0
290
     0
174
     0
 93
        1
 44
0.0
173
     0
291
     1
 45
0.0
1001
ACAD
1000
AcDbSavedByObjectVersion
1070
     0
  0
DICTIONARYVAR
  5
477
102
{ACAD_REACTORS
330
474
102
}
330
474
100
DictionaryVariables
280
     0
  1
2
  0
DICTIONARYVAR
  5
478
102
{ACAD_REACTORS
330
474
102
}
330
474
100
DictionaryVariables
280
     0
  1
1
  0
DICTIONARY
  5
49B
330
3D
100
AcDbDictionary
280
     1
281
     1
  3
ACAD_XREC_ROUNDTRIP
360
49C
  0
DICTIONARY
  5
499
330
3C
100
AcDbDictionary
280
     1
281
     1
  3
ACAD_XREC_ROUNDTRIP
360
49A
  0
DICTIONARY
  5
49D
330
3E
100
AcDbDictionary
280
     1
281
     1
  3
ACAD_XREC_ROUNDTRIP
360
49E
  0
DICTIONARY
  5
481
330
2F
100
AcDbDictionary
280
     1
281
     1
  3
ACAD_XREC_ROUNDTRIP
360
482
  0
DICTIONARY
  5
485
330
31
100
AcDbDictionary
280
     1
281
     1
  3
ACAD_XREC_ROUNDTRIP
360
486
  0
DICTIONARY
  5
483
330
30
100
AcDbDictionary
280
     1
281
     1
  3
ACAD_XREC_ROUNDTRIP
360
484
  0
DICTIONARY
  5
487
330
32
100
AcDbDictionary
280
     1
281
     1
  3
ACAD_XREC_ROUNDTRIP
360
488
  0
DICTIONARY
  5
48F
330
36
100
AcDbDictionary
280
     1
281
     1
  3
ACAD_XREC_ROUNDTRIP
360
490
  0
DICTIONARY
  5
497
330
3A
100
AcDbDictionary
280
     1
281
     1
  3
ACAD_XREC_ROUNDTRIP
360
498
  0
DICTIONARY
  5
48B
330
34
100
AcDbDictionary
280
     1
281
     1
  3
ACAD_XREC_ROUNDTRIP
360
48C
  0
DICTIONARY
  5
48D
330
35
100
AcDbDictionary
280
     1
281
     1
  3
ACAD_XREC_ROUNDTRIP
360
48E
  0
DICTIONARY
  5
495
330
39
100
AcDbDictionary
280
     1
281
     1
  3
ACAD_XREC_ROUNDTRIP
360
496
  0
DICTIONARY
  5
479
330
2B
100
AcDbDictionary
280
     1
281
     1
  3
ACAD_XREC_ROUNDTRIP
360
47A
  0
DICTIONARY
  5
47B
330
2C
100
AcDbDictionary
280
     1
281
     1
  3
ACAD_XREC_ROUNDTRIP
360
47C
  0
DICTIONARY
  5
47D
330
2D
100
AcDbDictionary
280
     1
281
     1
  3
ACAD_XREC_ROUNDTRIP
360
47E
  0
DICTIONARY
  5
47F
330
2E
100
AcDbDictionary
280
     1
281
     1
  3
ACAD_XREC_ROUNDTRIP
360
480
  0
DICTIONARY
  5
493
330
38
100
AcDbDictionary
280
     1
281
     1
  3
ACAD_XREC_ROUNDTRIP
360
494
  0
DICTIONARY
  5
489
330
33
100
AcDbDictionary
280
     1
281
     1
  3
ACAD_XREC_ROUNDTRIP
360
48A
  0
DICTIONARY
  5
491
330
37
100
AcDbDictionary
280
     1
281
     1
  3
ACAD_XREC_ROUNDTRIP
360
492
  0
XRECORD
  5
49C
102
{ACAD_REACTORS
330
49B
102
}
330
49B
100
AcDbXrecord
280
     1
102
MATERIAL
148
0.0
149
0.0
149
0.0
 93
        0
 94
      127
282
     0
 72
     1
 77
     1
171
     1
175
     1
179
     1
273
     0
  0
XRECORD
  5
49A
102
{ACAD_REACTORS
330
499
102
}
330
499
100
AcDbXrecord
280
     1
102
MATERIAL
148
0.0
149
0.0
149
0.0
 93
        0
 94
      127
282
     0
 72
     1
 77
     1
171
     1
175
     1
179
     1
273
     0
  0
XRECORD
  5
49E
102
{ACAD_REACTORS
330
49D
102
}
330
49D
100
AcDbXrecord
280
     1
102
MATERIAL
148
0.0
149
0.0
149
0.0
 93
        0
 94
      127
282
     0
 72
     1
 77
     1
171
     1
175
     1
179
     1
273
     0
  0
XRECORD
  5
482
102
{ACAD_REACTORS
330
481
102
}
330
481
100
AcDbXrecord
280
     1
102
RTVSPropertyOp0
 70
     1
102
RTVSPropertyOp1
 70
     1
102
RTVSPropertyOp2
 70
     1
102
RTVSPropertyOp3
 70
     1
102
RTVSPropertyOp4
 70
     1
102
RTVSPropertyOp5
 70
     1
102
RTVSPropertyOp6
 70
     1
102
RTVSPropertyOp7
 70
     1
102
RTVSPropertyOp8
 70
     1
102
RTVSPropertyOp9
 70
     1
102
RTVSPropertyOp10
 70
     1
102
RTVSPropertyOp11
 70
     1
102
RTVSPropertyOp12
 70
     1
102
RTVSPropertyOp13
 70
     1
102
RTVSPropertyOp14
 70
     1
102
RTVSPropertyOp15
 70
     1
102
RTVSPropertyOp16
 70
     1
102
RTVSPropertyOp17
 70
     1
102
RTVSPropertyOp18
 70
     1
102
RTVSPropertyOp19
 70
     1
102
RTVSPropertyOp20
 70
     1
102
RTVSPropertyOp21
 70
     1
102
RTVSPropertyOp22
 70
     1
102
RTVSPropertyOp23
 70
     1
102
RTVSPropertyOp24
 70
     1
102
RTVSPropertyOp25
 70
     1
102
RTVSPropertyOp26
 70
     1
102
RTVSPropertyOp27
 70
     1
102
RTVSPropertyOp28
 70
     1
102
RTVSPropertyOp29
 70
     1
102
RTVSPropertyOp30
 70
     1
102
RTVSPropertyOp31
 70
     1
102
RTVSPropertyOp32
 70
     1
  0
XRECORD
  5
486
102
{ACAD_REACTORS
330
485
102
}
330
485
100
AcDbXrecord
280
     1
102
RTVSPropertyOp0
 70
     1
102
RTVSPropertyOp1
 70
     1
102
RTVSPropertyOp2
 70
     1
102
RTVSPropertyOp3
 70
     1
102
RTVSPropertyOp4
 70
     1
102
RTVSPropertyOp5
 70
     1
102
RTVSPropertyOp6
 70
     1
102
RTVSPropertyOp7
 70
     1
102
RTVSPropertyOp8
 70
     1
102
RTVSPropertyOp9
 70
     1
102
RTVSPropertyOp10
 70
     1
102
RTVSPropertyOp11
 70
     1
102
RTVSPropertyOp12
 70
     1
102
RTVSPropertyOp13
 70
     1
102
RTVSPropertyOp14
 70
     1
102
RTVSPropertyOp15
 70
     1
102
RTVSPropertyOp16
 70
     1
102
RTVSPropertyOp17
 70
     1
102
RTVSPropertyOp18
 70
     1
102
RTVSPropertyOp19
 70
     1
102
RTVSPropertyOp20
 70
     1
102
RTVSPropertyOp21
 70
     1
102
RTVSPropertyOp22
 70
     1
102
RTVSPropertyOp23
 70
     1
102
RTVSPropertyOp24
 70
     1
102
RTVSPropertyOp25
 70
     1
102
RTVSPropertyOp26
 70
     1
102
RTVSPropertyOp27
 70
     1
102
RTVSPropertyOp28
 70
     1
102
RTVSPropertyOp29
 70
     1
102
RTVSPropertyOp30
 70
     1
102
RTVSPropertyOp31
 70
     1
102
RTVSPropertyOp32
 70
     1
  0
XRECORD
  5
484
102
{ACAD_REACTORS
330
483
102
}
330
483
100
AcDbXrecord
280
     1
102
RTVSPropertyOp0
 70
     1
102
RTVSPropertyOp1
 70
     1
102
RTVSPropertyOp2
 70
     1
102
RTVSPropertyOp3
 70
     1
102
RTVSPropertyOp4
 70
     1
102
RTVSPropertyOp5
 70
     1
102
RTVSPropertyOp6
 70
     1
102
RTVSPropertyOp7
 70
     1
102
RTVSPropertyOp8
 70
     1
102
RTVSPropertyOp9
 70
     1
102
RTVSPropertyOp10
 70
     1
102
RTVSPropertyOp11
 70
     1
102
RTVSPropertyOp12
 70
     1
102
RTVSPropertyOp13
 70
     1
102
RTVSPropertyOp14
 70
     1
102
RTVSPropertyOp15
 70
     1
102
RTVSPropertyOp16
 70
     1
102
RTVSPropertyOp17
 70
     1
102
RTVSPropertyOp18
 70
     1
102
RTVSPropertyOp19
 70
     1
102
RTVSPropertyOp20
 70
     1
102
RTVSPropertyOp21
 70
     1
102
RTVSPropertyOp22
 70
     1
102
RTVSPropertyOp23
 70
     1
102
RTVSPropertyOp24
 70
     1
102
RTVSPropertyOp25
 70
     1
102
RTVSPropertyOp26
 70
     1
102
RTVSPropertyOp27
 70
     1
102
RTVSPropertyOp28
 70
     1
102
RTVSPropertyOp29
 70
     1
102
RTVSPropertyOp30
 70
     1
102
RTVSPropertyOp31
 70
     1
102
RTVSPropertyOp32
 70
     1
  0
XRECORD
  5
488
102
{ACAD_REACTORS
330
487
102
}
330
487
100
AcDbXrecord
280
     1
102
RTVSPropertyOp0
 70
     1
102
RTVSPropertyOp1
 70
     1
102
RTVSPropertyOp2
 70
     1
102
RTVSPropertyOp3
 70
     1
102
RTVSPropertyOp4
 70
     1
102
RTVSPropertyOp5
 70
     1
102
RTVSPropertyOp6
 70
     1
102
RTVSPropertyOp7
 70
     1
102
RTVSPropertyOp8
 70
     1
102
RTVSPropertyOp9
 70
     1
102
RTVSPropertyOp10
 70
     1
102
RTVSPropertyOp11
 70
     1
102
RTVSPropertyOp12
 70
     1
102
RTVSPropertyOp13
 70
     1
102
RTVSPropertyOp14
 70
     1
102
RTVSPropertyOp15
 70
     1
102
RTVSPropertyOp16
 70
     1
102
RTVSPropertyOp17
 70
     1
102
RTVSPropertyOp18
 70
     1
102
RTVSPropertyOp19
 70
     1
102
RTVSPropertyOp20
 70
     1
102
RTVSPropertyOp21
 70
     1
102
RTVSPropertyOp22
 70
     1
102
RTVSPropertyOp23
 70
     1
102
RTVSPropertyOp24
 70
     1
102
RTVSPropertyOp25
 70
     1
102
RTVSPropertyOp26
 70
     1
102
RTVSPropertyOp27
 70
     1
102
RTVSPropertyOp28
 70
     1
102
RTVSPropertyOp29
 70
     1
102
RTVSPropertyOp30
 70
     1
102
RTVSPropertyOp31
 70
     1
102
RTVSPropertyOp32
 70
     1
  0
XRECORD
  5
490
102
{ACAD_REACTORS
330
48F
102
}
330
48F
100
AcDbXrecord
280
     1
102
RTVSPropertyOp0
 70
     1
102
RTVSPropertyOp1
 70
     1
102
RTVSPropertyOp2
 70
     1
102
RTVSPropertyOp3
 70
     1
102
RTVSPropertyOp4
 70
     1
102
RTVSPropertyOp5
 70
     1
102
RTVSPropertyOp6
 70
     1
102
RTVSPropertyOp7
 70
     1
102
RTVSPropertyOp8
 70
     1
102
RTVSPropertyOp9
 70
     1
102
RTVSPropertyOp10
 70
     1
102
RTVSPropertyOp11
 70
     1
102
RTVSPropertyOp12
 70
     1
102
RTVSPropertyOp13
 70
     1
102
RTVSPropertyOp14
 70
     1
102
RTVSPropertyOp15
 70
     1
102
RTVSPropertyOp16
 70
     1
102
RTVSPropertyOp17
 70
     1
102
RTVSPropertyOp18
 70
     1
102
RTVSPropertyOp19
 70
     1
102
RTVSPropertyOp20
 70
     1
102
RTVSPropertyOp21
 70
     1
102
RTVSPropertyOp22
 70
     1
102
RTVSPropertyOp23
 70
     1
102
RTVSPropertyOp24
 70
     1
102
RTVSPropertyOp25
 70
     1
102
RTVSPropertyOp26
 70
     1
102
RTVSPropertyOp27
 70
     1
102
RTVSPropertyOp28
 70
     1
102
RTVSPropertyOp29
 70
     1
102
RTVSPropertyOp30
 70
     1
102
RTVSPropertyOp31
 70
     1
102
RTVSPropertyOp32
 70
     1
  0
XRECORD
  5
498
102
{ACAD_REACTORS
330
497
102
}
330
497
100
AcDbXrecord
280
     1
102
RTVSPropertyOp0
 70
     1
102
RTVSPropertyOp1
 70
     1
102
RTVSPropertyOp2
 70
     1
102
RTVSPropertyOp3
 70
     1
102
RTVSPropertyOp4
 70
     1
102
RTVSPropertyOp5
 70
     1
102
RTVSPropertyOp6
 70
     1
102
RTVSPropertyOp7
 70
     1
102
RTVSPropertyOp8
 70
     1
102
RTVSPropertyOp9
 70
     1
102
RTVSPropertyOp10
 70
     1
102
RTVSPropertyOp11
 70
     1
102
RTVSPropertyOp12
 70
     1
102
RTVSPropertyOp13
 70
     1
102
RTVSPropertyOp14
 70
     1
102
RTVSPropertyOp15
 70
     1
102
RTVSPropertyOp16
 70
     1
102
RTVSPropertyOp17
 70
     1
102
RTVSPropertyOp18
 70
     1
102
RTVSPropertyOp19
 70
     1
102
RTVSPropertyOp20
 70
     1
102
RTVSPropertyOp21
 70
     1
102
RTVSPropertyOp22
 70
     1
102
RTVSPropertyOp23
 70
     1
102
RTVSPropertyOp24
 70
     1
102
RTVSPropertyOp25
 70
     1
102
RTVSPropertyOp26
 70
     1
102
RTVSPropertyOp27
 70
     1
102
RTVSPropertyOp28
 70
     1
102
RTVSPropertyOp29
 70
     1
102
RTVSPropertyOp30
 70
     1
102
RTVSPropertyOp31
 70
     1
102
RTVSPropertyOp32
 70
     1
  0
XRECORD
  5
48C
102
{ACAD_REACTORS
330
48B
102
}
330
48B
100
AcDbXrecord
280
     1
102
RTVSPropertyOp0
 70
     1
102
RTVSPropertyOp1
 70
     1
102
RTVSPropertyOp2
 70
     1
102
RTVSPropertyOp3
 70
     1
102
RTVSPropertyOp4
 70
     1
102
RTVSPropertyOp5
 70
     1
102
RTVSPropertyOp6
 70
     1
102
RTVSPropertyOp7
 70
     1
102
RTVSPropertyOp8
 70
     1
102
RTVSPropertyOp9
 70
     1
102
RTVSPropertyOp10
 70
     1
102
RTVSPropertyOp11
 70
     1
102
RTVSPropertyOp12
 70
     1
102
RTVSPropertyOp13
 70
     1
102
RTVSPropertyOp14
 70
     1
102
RTVSPropertyOp15
 70
     1
102
RTVSPropertyOp16
 70
     1
102
RTVSPropertyOp17
 70
     1
102
RTVSPropertyOp18
 70
     1
102
RTVSPropertyOp19
 70
     1
102
RTVSPropertyOp20
 70
     1
102
RTVSPropertyOp21
 70
     1
102
RTVSPropertyOp22
 70
     1
102
RTVSPropertyOp23
 70
     1
102
RTVSPropertyOp24
 70
     1
102
RTVSPropertyOp25
 70
     1
102
RTVSPropertyOp26
 70
     1
102
RTVSPropertyOp27
 70
     1
102
RTVSPropertyOp28
 70
     1
102
RTVSPropertyOp29
 70
     1
102
RTVSPropertyOp30
 70
     1
102
RTVSPropertyOp31
 70
     1
102
RTVSPropertyOp32
 70
     1
  0
XRECORD
  5
48E
102
{ACAD_REACTORS
330
48D
102
}
330
48D
100
AcDbXrecord
280
     1
102
RTVSPropertyOp0
 70
     1
102
RTVSPropertyOp1
 70
     1
102
RTVSPropertyOp2
 70
     1
102
RTVSPropertyOp3
 70
     1
102
RTVSPropertyOp4
 70
     1
102
RTVSPropertyOp5
 70
     1
102
RTVSPropertyOp6
 70
     1
102
RTVSPropertyOp7
 70
     1
102
RTVSPropertyOp8
 70
     1
102
RTVSPropertyOp9
 70
     1
102
RTVSPropertyOp10
 70
     1
102
RTVSPropertyOp11
 70
     1
102
RTVSPropertyOp12
 70
     1
102
RTVSPropertyOp13
 70
     1
102
RTVSPropertyOp14
 70
     1
102
RTVSPropertyOp15
 70
     1
102
RTVSPropertyOp16
 70
     1
102
RTVSPropertyOp17
 70
     1
102
RTVSPropertyOp18
 70
     1
102
RTVSPropertyOp19
 70
     1
102
RTVSPropertyOp20
 70
     1
102
RTVSPropertyOp21
 70
     1
102
RTVSPropertyOp22
 70
     1
102
RTVSPropertyOp23
 70
     1
102
RTVSPropertyOp24
 70
     1
102
RTVSPropertyOp25
 70
     1
102
RTVSPropertyOp26
 70
     1
102
RTVSPropertyOp27
 70
     1
102
RTVSPropertyOp28
 70
     1
102
RTVSPropertyOp29
 70
     1
102
RTVSPropertyOp30
 70
     1
102
RTVSPropertyOp31
 70
     1
102
RTVSPropertyOp32
 70
     1
  0
XRECORD
  5
496
102
{ACAD_REACTORS
330
495
102
}
330
495
100
AcDbXrecord
280
     1
102
RTVSPropertyOp0
 70
     1
102
RTVSPropertyOp1
 70
     1
102
RTVSPropertyOp2
 70
     1
102
RTVSPropertyOp3
 70
     1
102
RTVSPropertyOp4
 70
     1
102
RTVSPropertyOp5
 70
     1
102
RTVSPropertyOp6
 70
     1
102
RTVSPropertyOp7
 70
     1
102
RTVSPropertyOp8
 70
     1
102
RTVSPropertyOp9
 70
     1
102
RTVSPropertyOp10
 70
     1
102
RTVSPropertyOp11
 70
     1
102
RTVSPropertyOp12
 70
     1
102
RTVSPropertyOp13
 70
     1
102
RTVSPropertyOp14
 70
     1
102
RTVSPropertyOp15
 70
     1
102
RTVSPropertyOp16
 70
     1
102
RTVSPropertyOp17
 70
     1
102
RTVSPropertyOp18
 70
     1
102
RTVSPropertyOp19
 70
     1
102
RTVSPropertyOp20
 70
     1
102
RTVSPropertyOp21
 70
     1
102
RTVSPropertyOp22
 70
     1
102
RTVSPropertyOp23
 70
     1
102
RTVSPropertyOp24
 70
     1
102
RTVSPropertyOp25
 70
     1
102
RTVSPropertyOp26
 70
     1
102
RTVSPropertyOp27
 70
     1
102
RTVSPropertyOp28
 70
     1
102
RTVSPropertyOp29
 70
     1
102
RTVSPropertyOp30
 70
     1
102
RTVSPropertyOp31
 70
     1
102
RTVSPropertyOp32
 70
     1
  0
XRECORD
  5
47A
102
{ACAD_REACTORS
330
479
102
}
330
479
100
AcDbXrecord
280
     1
102
RTVSPropertyOp0
 70
     1
102
RTVSPropertyOp1
 70
     1
102
RTVSPropertyOp2
 70
     1
102
RTVSPropertyOp3
 70
     1
102
RTVSPropertyOp4
 70
     1
102
RTVSPropertyOp5
 70
     1
102
RTVSPropertyOp6
 70
     1
102
RTVSPropertyOp7
 70
     1
102
RTVSPropertyOp8
 70
     1
102
RTVSPropertyOp9
 70
     1
102
RTVSPropertyOp10
 70
     1
102
RTVSPropertyOp11
 70
     1
102
RTVSPropertyOp12
 70
     1
102
RTVSPropertyOp13
 70
     1
102
RTVSPropertyOp14
 70
     1
102
RTVSPropertyOp15
 70
     1
102
RTVSPropertyOp16
 70
     1
102
RTVSPropertyOp17
 70
     1
102
RTVSPropertyOp18
 70
     1
102
RTVSPropertyOp19
 70
     1
102
RTVSPropertyOp20
 70
     1
102
RTVSPropertyOp21
 70
     1
102
RTVSPropertyOp22
 70
     1
102
RTVSPropertyOp23
 70
     1
102
RTVSPropertyOp24
 70
     1
102
RTVSPropertyOp25
 70
     1
102
RTVSPropertyOp26
 70
     1
102
RTVSPropertyOp27
 70
     1
102
RTVSPropertyOp28
 70
     1
102
RTVSPropertyOp29
 70
     1
102
RTVSPropertyOp30
 70
     1
102
RTVSPropertyOp31
 70
     1
102
RTVSPropertyOp32
 70
     1
  0
XRECORD
  5
47C
102
{ACAD_REACTORS
330
47B
102
}
330
47B
100
AcDbXrecord
280
     1
102
RTVSPropertyOp0
 70
     1
102
RTVSPropertyOp1
 70
     1
102
RTVSPropertyOp2
 70
     1
102
RTVSPropertyOp3
 70
     1
102
RTVSPropertyOp4
 70
     1
102
RTVSPropertyOp5
 70
     1
102
RTVSPropertyOp6
 70
     1
102
RTVSPropertyOp7
 70
     1
102
RTVSPropertyOp8
 70
     1
102
RTVSPropertyOp9
 70
     1
102
RTVSPropertyOp10
 70
     1
102
RTVSPropertyOp11
 70
     1
102
RTVSPropertyOp12
 70
     1
102
RTVSPropertyOp13
 70
     1
102
RTVSPropertyOp14
 70
     1
102
RTVSPropertyOp15
 70
     1
102
RTVSPropertyOp16
 70
     1
102
RTVSPropertyOp17
 70
     1
102
RTVSPropertyOp18
 70
     1
102
RTVSPropertyOp19
 70
     1
102
RTVSPropertyOp20
 70
     1
102
RTVSPropertyOp21
 70
     1
102
RTVSPropertyOp22
 70
     1
102
RTVSPropertyOp23
 70
     1
102
RTVSPropertyOp24
 70
     1
102
RTVSPropertyOp25
 70
     1
102
RTVSPropertyOp26
 70
     1
102
RTVSPropertyOp27
 70
     1
102
RTVSPropertyOp28
 70
     1
102
RTVSPropertyOp29
 70
     1
102
RTVSPropertyOp30
 70
     1
102
RTVSPropertyOp31
 70
     1
102
RTVSPropertyOp32
 70
     1
  0
XRECORD
  5
47E
102
{ACAD_REACTORS
330
47D
102
}
330
47D
100
AcDbXrecord
280
     1
102
RTVSPropertyOp0
 70
     1
102
RTVSPropertyOp1
 70
     1
102
RTVSPropertyOp2
 70
     1
102
RTVSPropertyOp3
 70
     1
102
RTVSPropertyOp4
 70
     1
102
RTVSPropertyOp5
 70
     1
102
RTVSPropertyOp6
 70
     1
102
RTVSPropertyOp7
 70
     1
102
RTVSPropertyOp8
 70
     1
102
RTVSPropertyOp9
 70
     1
102
RTVSPropertyOp10
 70
     1
102
RTVSPropertyOp11
 70
     1
102
RTVSPropertyOp12
 70
     1
102
RTVSPropertyOp13
 70
     1
102
RTVSPropertyOp14
 70
     1
102
RTVSPropertyOp15
 70
     1
102
RTVSPropertyOp16
 70
     1
102
RTVSPropertyOp17
 70
     1
102
RTVSPropertyOp18
 70
     1
102
RTVSPropertyOp19
 70
     1
102
RTVSPropertyOp20
 70
     1
102
RTVSPropertyOp21
 70
     1
102
RTVSPropertyOp22
 70
     1
102
RTVSPropertyOp23
 70
     1
102
RTVSPropertyOp24
 70
     1
102
RTVSPropertyOp25
 70
     1
102
RTVSPropertyOp26
 70
     1
102
RTVSPropertyOp27
 70
     1
102
RTVSPropertyOp28
 70
     1
102
RTVSPropertyOp29
 70
     1
102
RTVSPropertyOp30
 70
     1
102
RTVSPropertyOp31
 70
     1
102
RTVSPropertyOp32
 70
     1
  0
XRECORD
  5
480
102
{ACAD_REACTORS
330
47F
102
}
330
47F
100
AcDbXrecord
280
     1
102
RTVSPropertyOp0
 70
     1
102
RTVSPropertyOp1
 70
     1
102
RTVSPropertyOp2
 70
     1
102
RTVSPropertyOp3
 70
     1
102
RTVSPropertyOp4
 70
     1
102
RTVSPropertyOp5
 70
     1
102
RTVSPropertyOp6
 70
     1
102
RTVSPropertyOp7
 70
     1
102
RTVSPropertyOp8
 70
     1
102
RTVSPropertyOp9
 70
     1
102
RTVSPropertyOp10
 70
     1
102
RTVSPropertyOp11
 70
     1
102
RTVSPropertyOp12
 70
     1
102
RTVSPropertyOp13
 70
     1
102
RTVSPropertyOp14
 70
     1
102
RTVSPropertyOp15
 70
     1
102
RTVSPropertyOp16
 70
     1
102
RTVSPropertyOp17
 70
     1
102
RTVSPropertyOp18
 70
     1
102
RTVSPropertyOp19
 70
     1
102
RTVSPropertyOp20
 70
     1
102
RTVSPropertyOp21
 70
     1
102
RTVSPropertyOp22
 70
     1
102
RTVSPropertyOp23
 70
     1
102
RTVSPropertyOp24
 70
     1
102
RTVSPropertyOp25
 70
     1
102
RTVSPropertyOp26
 70
     1
102
RTVSPropertyOp27
 70
     1
102
RTVSPropertyOp28
 70
     1
102
RTVSPropertyOp29
 70
     1
102
RTVSPropertyOp30
 70
     1
102
RTVSPropertyOp31
 70
     1
102
RTVSPropertyOp32
 70
     1
  0
XRECORD
  5
494
102
{ACAD_REACTORS
330
493
102
}
330
493
100
AcDbXrecord
280
     1
102
RTVSPropertyOp0
 70
     1
102
RTVSPropertyOp1
 70
     1
102
RTVSPropertyOp2
 70
     1
102
RTVSPropertyOp3
 70
     1
102
RTVSPropertyOp4
 70
     1
102
RTVSPropertyOp5
 70
     1
102
RTVSPropertyOp6
 70
     1
102
RTVSPropertyOp7
 70
     1
102
RTVSPropertyOp8
 70
     1
102
RTVSPropertyOp9
 70
     1
102
RTVSPropertyOp10
 70
     1
102
RTVSPropertyOp11
 70
     1
102
RTVSPropertyOp12
 70
     1
102
RTVSPropertyOp13
 70
     1
102
RTVSPropertyOp14
 70
     1
102
RTVSPropertyOp15
 70
     1
102
RTVSPropertyOp16
 70
     1
102
RTVSPropertyOp17
 70
     1
102
RTVSPropertyOp18
 70
     1
102
RTVSPropertyOp19
 70
     1
102
RTVSPropertyOp20
 70
     1
102
RTVSPropertyOp21
 70
     1
102
RTVSPropertyOp22
 70
     1
102
RTVSPropertyOp23
 70
     1
102
RTVSPropertyOp24
 70
     1
102
RTVSPropertyOp25
 70
     1
102
RTVSPropertyOp26
 70
     1
102
RTVSPropertyOp27
 70
     1
102
RTVSPropertyOp28
 70
     1
102
RTVSPropertyOp29
 70
     1
102
RTVSPropertyOp30
 70
     1
102
RTVSPropertyOp31
 70
     1
102
RTVSPropertyOp32
 70
     1
  0
XRECORD
  5
48A
102
{ACAD_REACTORS
330
489
102
}
330
489
100
AcDbXrecord
280
     1
102
RTVSPropertyOp0
 70
     1
102
RTVSPropertyOp1
 70
     1
102
RTVSPropertyOp2
 70
     1
102
RTVSPropertyOp3
 70
     1
102
RTVSPropertyOp4
 70
     1
102
RTVSPropertyOp5
 70
     1
102
RTVSPropertyOp6
 70
     1
102
RTVSPropertyOp7
 70
     1
102
RTVSPropertyOp8
 70
     1
102
RTVSPropertyOp9
 70
     1
102
RTVSPropertyOp10
 70
     1
102
RTVSPropertyOp11
 70
     1
102
RTVSPropertyOp12
 70
     1
102
RTVSPropertyOp13
 70
     1
102
RTVSPropertyOp14
 70
     1
102
RTVSPropertyOp15
 70
     1
102
RTVSPropertyOp16
 70
     1
102
RTVSPropertyOp17
 70
     1
102
RTVSPropertyOp18
 70
     1
102
RTVSPropertyOp19
 70
     1
102
RTVSPropertyOp20
 70
     1
102
RTVSPropertyOp21
 70
     1
102
RTVSPropertyOp22
 70
     1
102
RTVSPropertyOp23
 70
     1
102
RTVSPropertyOp24
 70
     1
102
RTVSPropertyOp25
 70
     1
102
RTVSPropertyOp26
 70
     1
102
RTVSPropertyOp27
 70
     1
102
RTVSPropertyOp28
 70
     1
102
RTVSPropertyOp29
 70
     1
102
RTVSPropertyOp30
 70
     1
102
RTVSPropertyOp31
 70
     1
102
RTVSPropertyOp32
 70
     1
  0
XRECORD
  5
492
102
{ACAD_REACTORS
330
491
102
}
330
491
100
AcDbXrecord
280
     1
102
RTVSPropertyOp0
 70
     1
102
RTVSPropertyOp1
 70
     1
102
RTVSPropertyOp2
 70
     1
102
RTVSPropertyOp3
 70
     1
102
RTVSPropertyOp4
 70
     1
102
RTVSPropertyOp5
 70
     1
102
RTVSPropertyOp6
 70
     1
102
RTVSPropertyOp7
 70
     1
102
RTVSPropertyOp8
 70
     1
102
RTVSPropertyOp9
 70
     1
102
RTVSPropertyOp10
 70
     1
102
RTVSPropertyOp11
 70
     1
102
RTVSPropertyOp12
 70
     1
102
RTVSPropertyOp13
 70
     1
102
RTVSPropertyOp14
 70
     1
102
RTVSPropertyOp15
 70
     1
102
RTVSPropertyOp16
 70
     1
102
RTVSPropertyOp17
 70
     1
102
RTVSPropertyOp18
 70
     1
102
RTVSPropertyOp19
 70
     1
102
RTVSPropertyOp20
 70
     1
102
RTVSPropertyOp21
 70
     1
102
RTVSPropertyOp22
 70
     1
102
RTVSPropertyOp23
 70
     1
102
RTVSPropertyOp24
 70
     1
102
RTVSPropertyOp25
 70
     1
102
RTVSPropertyOp26
 70
     1
102
RTVSPropertyOp27
 70
     1
102
RTVSPropertyOp28
 70
     1
102
RTVSPropertyOp29
 70
     1
102
RTVSPropertyOp30
 70
     1
102
RTVSPropertyOp31
 70
     1
102
RTVSPropertyOp32
 70
     1
  0
ENDSEC
  0
EOF
